<?xml version="1.0" standalone="no"?>
<!DOCTYPE svg PUBLIC "-//W3C//DTD SVG 1.1//EN" "http://www.w3.org/Graphics/SVG/1.1/DTD/svg11.dtd" >
<svg xmlns="http://www.w3.org/2000/svg" xmlns:xlink="http://www.w3.org/1999/xlink" version="1.1">
<metadata>
Created by FontForge 20201107 at Wed Apr 16 17:05:47 2025
 By 
</metadata>
<defs>
<font id="Halo3Regular" horiz-adv-x="1298" >
  <font-face 
    font-family="Halo 3"
    font-weight="400"
    font-stretch="normal"
    units-per-em="2048"
    panose-1="0 0 0 0 0 0 0 0 0 0"
    ascent="1638"
    descent="-410"
    x-height="1360"
    cap-height="1405"
    bbox="101.5 -278 1999 2030.45"
    underline-thickness="0"
    underline-position="0"
    unicode-range="U+000A-20AC"
  />
<missing-glyph horiz-adv-x="1079" 
d="M102 1434h875v-1434h-875v1434zM160 1393l379 -633l381 633h-760zM514 717l-369 614v-1231zM541 674l-379 -631h758zM565 717l371 -621v1239z" />
    <glyph glyph-name=".notdef" horiz-adv-x="1079" 
d="M102 1434h875v-1434h-875v1434zM160 1393l379 -633l381 633h-760zM514 717l-369 614v-1231zM541 674l-379 -631h758zM565 717l371 -621v1239z" />
    <glyph glyph-name=".null" horiz-adv-x="0" 
 />
    <glyph glyph-name=".null" horiz-adv-x="0" 
 />
    <glyph glyph-name="nonmarkingreturn" horiz-adv-x="682" 
 />
    <glyph glyph-name="LF" unicode="&#xa;" horiz-adv-x="0" 
 />
    <glyph glyph-name="controlCR" unicode="&#xd;" horiz-adv-x="0" 
 />
    <glyph glyph-name="space" unicode=" " horiz-adv-x="632" 
 />
    <glyph glyph-name="exclam" unicode="!" horiz-adv-x="739" 
d="M417 432q78 -23 124 -76t52 -126t-53 -144q-32 -36 -78 -64q-44 -26 -96 -31q-65 -6 -118 18q-52 24 -88 64q-33 37 -49 92q-15 50 -4 101q11 50 48 93q36 42 106 68q78 28 156 5zM637 1382q2 -11 -1 -43q-1 -11 -8 -74q-5 -47 -10 -77q-7 -45 -8 -53q-19 -153 -24 -264
q-6 -109 -8 -267q0 -35 -4 -52q-5 -20 -42 -26q-19 -3 -80 -5q-56 -2 -115 3q-69 5 -110 15q-50 12 -64 33q-11 15 -14 83q-3 65 0 156q4 129 9 194q4 77 18 193q10 81 23 154q12 65 25 79q11 11 31 12q28 2 34 2q58 2 117 -12q56 -13 116 -13q21 0 45 3q22 3 43 -7
q20 -8 27 -34z" />
    <glyph glyph-name="quotedbl" unicode="&#x22;" horiz-adv-x="927" 
d="M398 1389q22 -28 28 -70q6 -41 -2 -91q-8 -54 -23 -95q-16 -45 -39 -85q-22 -39 -43 -58q-27 -27 -67 -23q-41 5 -68 27q-16 15 -31 47t-27 77q-12 43 -18 92q-6 51 -5 90q2 47 9 73q9 31 30 43q15 8 42 13q23 4 51 4q27 0 53 -3q3 0 43 -4q44 -8 67 -37zM824 1319
q6 -41 -2 -92q-8 -49 -24 -96q-18 -51 -38 -84q-23 -39 -43 -57q-30 -27 -69 -24t-67 28q-15 13 -31 47q-12 27 -26 77q-12 43 -18 92q-7 57 -6 90q2 47 9 73q9 31 30 43q13 8 39 12q17 3 54 3q18 0 54 -2q27 -1 42 -3q44 -8 67 -37t29 -70z" />
    <glyph glyph-name="quotedbl" unicode="&#x201d;" horiz-adv-x="927" 
d="M398 1389q22 -28 28 -70q6 -41 -2 -91q-8 -54 -23 -95q-16 -45 -39 -85q-22 -39 -43 -58q-27 -27 -67 -23q-41 5 -68 27q-16 15 -31 47t-27 77q-12 43 -18 92q-6 51 -5 90q2 47 9 73q9 31 30 43q15 8 42 13q23 4 51 4q27 0 53 -3q3 0 43 -4q44 -8 67 -37zM824 1319
q6 -41 -2 -92q-8 -49 -24 -96q-18 -51 -38 -84q-23 -39 -43 -57q-30 -27 -69 -24t-67 28q-15 13 -31 47q-12 27 -26 77q-12 43 -18 92q-7 57 -6 90q2 47 9 73q9 31 30 43q13 8 39 12q17 3 54 3q18 0 54 -2q27 -1 42 -3q44 -8 67 -37t29 -70z" />
    <glyph glyph-name="quotedbl" unicode="&#x201c;" horiz-adv-x="927" 
d="M398 1389q22 -28 28 -70q6 -41 -2 -91q-8 -54 -23 -95q-16 -45 -39 -85q-22 -39 -43 -58q-27 -27 -67 -23q-41 5 -68 27q-16 15 -31 47t-27 77q-12 43 -18 92q-6 51 -5 90q2 47 9 73q9 31 30 43q15 8 42 13q23 4 51 4q27 0 53 -3q3 0 43 -4q44 -8 67 -37zM824 1319
q6 -41 -2 -92q-8 -49 -24 -96q-18 -51 -38 -84q-23 -39 -43 -57q-30 -27 -69 -24t-67 28q-15 13 -31 47q-12 27 -26 77q-12 43 -18 92q-7 57 -6 90q2 47 9 73q9 31 30 43q13 8 39 12q17 3 54 3q18 0 54 -2q27 -1 42 -3q44 -8 67 -37t29 -70z" />
    <glyph glyph-name="dollar" unicode="$" horiz-adv-x="1075" 
d="M973 1307q2 -9 -2 -56q-1 -8 -11 -111q-5 -49 -14 -111q-7 -49 -15 -54q-17 -10 -57 -4t-89 9q-44 3 -94 -4q-46 -6 -68 -39q-9 -14 -7 -35q1 -18 11 -34q6 -12 36 -38q40 -36 61 -53q22 -18 64 -52q11 -9 27.5 -22t21.5 -17q55 -48 78 -107q22 -56 17 -123
q-4 -63 -32 -127q-27 -62 -69 -118q-42 -55 -96 -99q-52 -42 -114 -64q5 -26 9 -48q2 -9 4.5 -25t3.5 -22q6 -31 -21 -43q-31 -14 -64 -15q-45 -2 -77 2q-33 4 -55 4q-7 0 -14 7l-9 12q-4 7 3 38q7 34 8 41q-28 -2 -65 -2q-59 0 -90 2q-41 3 -86 13q-38 9 -51 27
q-8 12 -9 26q-2 20 -3 29q-4 49 -2 122q2 69 10 123q4 25 17 36q12 12 47 17q29 4 74 4q54 0 83 -1q43 -1 79 3q40 5 59 15q23 12 23 36q0 16 -9 28q-11 14 -21 22q-40 32 -91 63q-43 27 -87 67q-73 70 -103 158q-31 91 -22 179q10 95 54 174q47 83 126 140q-2 17 -9 52
q-5 24 -15 74q-8 38 -9 66q-1 30 11 36q6 2 18 3q8 1 26 1h49q52 2 83 9q32 7 51 0t28 -39q8 -28 16 -104q23 4 84 4q55 0 122 -8q62 -7 115 -23q52 -15 61 -44z" />
    <glyph glyph-name="percent" unicode="%" horiz-adv-x="2101" 
d="M795 697q-68 -81 -185 -116q-99 -30 -179 -14t-145 63q-64 46 -107 116q-41 66 -62 148q-19 76 -13 155q6 81 40 144q27 49 66 81q37 30 87 58q42 26 91 49q44 21 100 29q110 14 193 -31q84 -45 136 -125q53 -80 71 -182t-4 -198q-23 -99 -89 -177zM620 954q11 42 -8 95
q-21 59 -65 70t-79 -13q-36 -24 -45 -74q-9 -52 36 -109q29 -39 64 -43q36 -4 61 15q26 20 36 59zM1970 640q29 -85 29 -170q0 -84 -29 -165q-28 -79 -90 -135q-32 -29 -80 -54q-41 -21 -90 -37q-95 -30 -172 -15q-79 15 -144 60t-108 112q-44 68 -65 147q-21 77 -16 158
q4 79 41 149q28 51 65 81q38 32 86 59q29 18 93 48q48 22 100 30q97 14 171 -22q77 -37 128 -98q52 -62 81 -148zM1721 448q11 41 -9 99q-9 27 -31 46t-48 25t-52 -3t-45 -34q-9 -12 -9 -34q0 -20 5 -47q4 -23 12 -46q6 -19 17 -33q29 -37 63 -43q36 -6 61 11q25 18 36 59z
M1443 1180q-31 -41 -50 -73q-122 -205 -211 -445q-84 -228 -148 -469q-2 -8 -7 -30t-7 -32q-9 -39 -21 -78q-12 -38 -31 -70q-18 -30 -43 -34q-14 -4 -56 8q-49 15 -87 28q-20 7 -86 34q-42 17 -54 25q-23 17 -23 48q0 4 23 67q8 23 30 77.5t32 81.5q32 82 85 219
q32 81 100 251q122 308 271 674q13 17 33 16q26 -2 44 -9q23 -9 43 -22q18 -11 35 -21q15 -11 50 -30q31 -17 63 -41q27 -20 49 -49q19 -25 10 -50q-15 -38 -44 -76z" />
    <glyph glyph-name="ampersand" unicode="&#x26;" horiz-adv-x="1411" 
d="M1307 193l-1 1q7 -9 -6 -23q-58 -73 -91 -112q-35 -43 -72 -58q-35 -15 -84 5q-48 20 -126 75q-69 -63 -159 -93t-186 -30q-92 0 -184 29t-158 85q-69 58 -106 138q-38 81 -30 186q8 103 52 196t118 165q-40 37 -64 82q-25 47 -40 101q-13 46 -18 108q-4 52 2 104
q14 102 68 169q56 69 135 108q77 38 173 50q91 12 182 -2t164 -49q72 -35 117 -95q43 -59 45 -135q2 -77 -57 -170q-62 -99 -157 -182q-102 -89 -180 -160q19 -27 63 -77t67 -74q18 52 28 108q11 63 -1 112q-6 24 23 29q27 4 68 -2q30 -5 77 -14q35 -7 52 -7q14 0 30 4
q6 1 36 4q18 2 32 -4q15 -6 15 -23q2 -57 -2 -105q-5 -65 -13 -116q-10 -64 -22 -114q-15 -60 -32 -99q47 -28 107 -57q46 -22 113 -44q16 -6 22 -14zM513 1059q-5 -35 3 -69q4 -23 16 -67q22 19 44 45q11 13 38 51q37 49 44 80q7 33 -2 50t-32 20t-46 -9t-42 -37
q-18 -24 -23 -64zM475 323q37 -40 145 16q-36 25 -76 62q-29 26 -68 71q-40 -107 -1 -149z" />
    <glyph glyph-name="quotesingle" unicode="'" horiz-adv-x="532" 
d="M403 1387q25 -32 26 -88q2 -59 -13 -117q-16 -62 -40 -114q-24 -50 -55 -78q-30 -27 -69 -24q-38 3 -66 28q-24 21 -41 72q-18 55 -30 115q-11 59 -13 117q-1 54 11 82q14 30 37 39q22 8 55 10q32 0 50 1q31 2 56 -1q22 -2 52 -13q24 -9 40 -29z" />
    <glyph glyph-name="quotesingle" unicode="&#x2019;" horiz-adv-x="532" 
d="M403 1387q25 -32 26 -88q2 -59 -13 -117q-16 -62 -40 -114q-24 -50 -55 -78q-30 -27 -69 -24q-38 3 -66 28q-24 21 -41 72q-18 55 -30 115q-11 59 -13 117q-1 54 11 82q14 30 37 39q22 8 55 10q32 0 50 1q31 2 56 -1q22 -2 52 -13q24 -9 40 -29z" />
    <glyph glyph-name="quotesingle" unicode="&#x2018;" horiz-adv-x="532" 
d="M403 1387q25 -32 26 -88q2 -59 -13 -117q-16 -62 -40 -114q-24 -50 -55 -78q-30 -27 -69 -24q-38 3 -66 28q-24 21 -41 72q-18 55 -30 115q-11 59 -13 117q-1 54 11 82q14 30 37 39q22 8 55 10q32 0 50 1q31 2 56 -1q22 -2 52 -13q24 -9 40 -29z" />
    <glyph glyph-name="parenleft" unicode="(" horiz-adv-x="1220" 
d="M1059 321q29 -20 44 -58q13 -35 15 -87q1 -44 -10 -99q-11 -54 -30 -96t-49 -74q-29 -31 -63 -38q-76 -16 -150 -10q-78 6 -150 27q-177 55 -290 154q-117 103 -180 232q-65 132 -84 289q-20 157 0 324q14 117 58 224q45 108 117 201q70 91 165 164q93 72 202 114
q72 27 165 33q98 6 168 -6q53 -9 81 -51q27 -40 39 -95q12 -56 11 -112q-2 -59 -3 -98q-2 -20 -2 -37q0 -20 -8 -33q-8 -16 -32 -22q-32 -8 -54 -11q-18 -3 -56 -5q-7 0 -43 -4q-71 -13 -132 -41q-64 -30 -116 -74q-72 -62 -108 -142t-34 -165t42 -163q41 -79 121 -132
q48 -32 107 -50q52 -15 106 -25q18 -3 91 -14q40 -6 62 -20z" />
    <glyph glyph-name="parenright" unicode=")" horiz-adv-x="1228" 
d="M1096 963q33 -138 30 -276q-3 -139 -43 -271q-40 -133 -118 -242q-76 -107 -190 -189q-111 -80 -264 -113q-33 -8 -82 -12q-53 -5 -100 -2q-52 3 -95 18q-44 15 -63 48q-22 34 -39 89q-20 62 -25 116q-6 63 5 113q12 51 50 79q29 18 66 24q14 2 43.5 7.5t44.5 7.5
q40 6 102 20q51 11 101 41q48 29 89 77q40 48 66 129q30 96 10 184q-19 86 -74 156q-54 69 -136 116q-83 48 -173 64q-2 0 -16.5 1.5t-25.5 2.5q-36 4 -55 7q-22 3 -54 11q-24 6 -32 18q-12 20 -15 68q-3 46 2 107q4 54 14 109t20 73q12 22 39 45q25 21 54 26q32 5 81 7
t88 -1q51 -4 87 -11q45 -9 79 -22q145 -57 250 -151q107 -96 177 -216q69 -120 102 -258z" />
    <glyph glyph-name="asterisk" unicode="*" horiz-adv-x="792" 
d="M608 1130q-11 -6 -30.5 -17t-26.5 -15q-9 -5 -22 -11.5t-16 -8.5q10 -6 37 -19q25 -12 50 -25q31 -16 46 -28q20 -16 24 -27q2 -9 -3 -23t-13 -28q-13 -22 -17 -27q-9 -12 -15 -18q-12 -13 -26 -12q-16 2 -29 8q-15 7 -30 18q-4 3 -12.5 9t-11.5 8l5 -30q2 -13 4 -37
q2 -19 -3 -36q-4 -16 -17 -22q-13 -5 -48 -10q-33 -4 -65 -3q-33 1 -57 13q-25 12 -25 39q0 35 4 62t4 62q-23 -15 -25 -17q-6 -5 -33 -22q-6 -4 -18 -11t-14 -8q-15 -9 -25 -9q-13 0 -25 11q-13 12 -25 28q-6 8 -20 34q-8 15 -8 26q0 13 16 28t39 27q30 16 45 22t33 15
q-7 5 -34 19q-17 9 -51 29q-31 18 -45 29q-21 16 -22 24q-2 13 10 27q3 4 7.5 9.5t7.5 9t5 6.5q27 32 44 45q15 12 30 8q15 -5 32 -20q18 -16 51 -39q-7 35 -12 59q-8 38 -2 58l7 14q2 5 11 10q7 5 36 11q39 8 66 9q38 2 64 -4q27 -6 32 -29q4 -29 3 -60q-1 -21 -1 -60
l24 20q20 16 31 23q20 13 32 17q18 6 30 5q5 0 19 -16q13 -14 28 -34t24 -36t7 -23q-5 -8 -28 -24q-28 -19 -53 -33z" />
    <glyph glyph-name="plus" unicode="+" horiz-adv-x="1222" 
d="M1119 532v-1q2 -20 2 -31t-2 -31q-1 -13 -10 -22t-54 -9t-99 3q-95 5 -103 6q-44 4 -70 4q0 -92 4 -143q5 -63 5 -94q0 -36 -9 -55q-9 -20 -37 -29q-27 -9 -75 -12l-63 -3.5t-66 -3.5q-15 0 -25 -1t-32 -1q-17 0 -32 3q-13 3 -20 11q-10 14 -9 55q2 45 6 97q3 38 11 102
q5 41 5 70q-32 0 -63 -2q-62 -4 -94 -5q-58 -2 -90 -3q-41 -2 -49 3q-20 9 -34 64q-14 56 -14 118q0 64 15 120t47 65q14 4 58 6q39 1 82 0q81 -3 84 -3q13 -1 34.5 -2.5t29.5 -2.5q0 2 -2 62t-2 93q0 50 3 90q3 42 12 49q15 12 46 17q25 4 62 4q23 0 65 -2t53 -2
q74 1 104 -27q29 -28 34 -75q5 -53 -3 -106q-8 -51 -13 -118q82 0 127 4q52 5 82 6q29 1 49 -7q17 -8 26 -33q7 -19 12 -75q2 -23 10 -129q0 -4 2 -24z" />
    <glyph glyph-name="comma" unicode="," horiz-adv-x="718" 
d="M614 146q12 -79 -14 -155q-25 -75 -88 -133q-62 -57 -168 -77q-30 -6 -64 5t-41 44q-9 45 22 61q21 11 74 30q45 16 76 39q34 25 33 86q-32 -45 -85 -60q-51 -14 -105 -2q-52 12 -94 49q-41 36 -53 92q-9 50 -1 93q9 46 34 83q26 38 62 64q39 28 87 37q90 16 160 -17
q69 -33 111 -96t54 -143z" />
    <glyph glyph-name="hyphen" unicode="-" horiz-adv-x="1034" 
d="M931 557q1 -28 -1 -67q-2 -30 -6 -37q-6 -10 -24 -15q-15 -4 -35 -4q-22 0 -39 4q-21 5 -30 6q-75 13 -157 13q-69 0 -157 -5q-57 -3 -158 -11q-91 -7 -155 -7q-27 0 -42 15q-9 12 -15 53q-7 45 -8 89q-2 64 -2 92v61q2 21 6 45q5 25 19 39q11 12 43 16q35 5 74 5
q47 0 91 -4q14 -1 46.5 -3.5t48.5 -4.5q13 -1 40.5 -3t40.5 -4q35 -4 56 -6q19 -1 70 0q16 0 51.5 1.5t55.5 2.5q74 2 101 2q44 0 52 -8q6 -6 12 -33q5 -20 10 -66q5 -45 8 -83q2 -26 4 -83z" />
    <glyph glyph-name="period" unicode="." horiz-adv-x="684" 
d="M563 304q19 -46 18 -98q-1 -51 -26 -99q-23 -44 -68 -80q-44 -35 -107 -44q-45 -8 -88 4q-47 13 -81 36q-38 26 -65 62q-28 38 -37 78q-15 63 6 115q21 53 63 89q45 39 98 54q55 16 114 7q68 -12 110 -44q43 -33 63 -80z" />
    <glyph glyph-name="slash" unicode="/" horiz-adv-x="1284" 
d="M1178 1324q8 -15 3 -36q-3 -16 -16 -43q-11 -23 -24 -42t-21 -33q-52 -87 -89 -176q-31 -75 -82 -180q-12 -26 -78 -160q-53 -108 -81 -161v-2q-1 -3 -5 -12.5t-9 -23t-11 -27.5q-9 -23 -45 -109q-9 -21 -27 -65.5t-27 -66.5q-22 -54 -56 -128q-9 -20 -24.5 -53.5
t-21.5 -47.5q-18 -39 -26 -47q-31 -31 -73 -16q-2 0 -6 2.5t-12.5 7t-15.5 8.5q-38 20 -68 35q-36 18 -82 45q-51 30 -80 45q-22 11 -62 35q-24 14 -27 17q-14 16 -8 37q1 10 14 31q3 5 11 20t14 23q3 4 13 20t16 24q11 15 22 33q67 109 122 220q18 37 111 227
q50 103 148 309q82 172 139 313q10 25 30 77q15 38 36 72q14 21 27 24t35 -5q20 -7 40 -17q43 -21 64 -30q31 -14 74 -39q7 -4 33.5 -19t39.5 -23q36 -21 56 -36q22 -16 29 -27z" />
    <glyph glyph-name="zero" unicode="0" horiz-adv-x="1261" 
d="M1115 925q39 -100 44 -219q5 -114 -36 -218q-26 -64 -74 -128q-43 -57 -96 -110q-51 -51 -114 -86q-66 -37 -135 -50q-170 -33 -287 18q-118 51 -215 192q-52 78 -76 160t-24 169t21 172q19 78 60 166q28 58 39 80q19 38 40 66q22 30 52 55q32 27 77 49q124 63 238 61
q113 -1 208 -51q92 -48 166 -136q70 -84 112 -190zM745 624q28 45 22 92q-6 48 -34 88q-30 43 -68 62t-81 10q-41 -9 -75 -61q-13 -21 -22 -54q-8 -29 -10 -65q-1 -31 5 -65q6 -31 23 -53q35 -45 83 -46q49 -2 88 23q43 27 69 69z" />
    <glyph glyph-name="one" unicode="1" horiz-adv-x="925" 
d="M821 1285q4 -11 -1 -38q-5 -30 -13 -53q-12 -36 -18 -53q-3 -8 -7.5 -21t-6.5 -18q-73 -242 -116 -485q-49 -277 -75 -493q-5 -35 -13 -65q-9 -33 -48 -42q-17 -5 -66 3q-44 7 -103 20q-46 10 -102 26q-46 13 -63 23q-15 9 -25 22q-9 13 -11 30q-2 14 13 83t39 168
q21 86 54 212q24 90 57 214q8 29 24.5 89t23.5 87q20 75 27 96q-20 -10 -37 -20q-9 -6 -54 -29q-9 -5 -53 -24q-25 -11 -33 -11q-19 0 -35 22q-15 20 -31 51q-13 25 -25 57q-3 7 -8.5 22.5t-7.5 21.5q-9 28 2 44q14 19 34 27q80 33 170 70q85 35 161 94q5 4 14.5 12t14.5 12
q15 12 35 16q5 0 44 -17q33 -15 84 -40q48 -24 83 -45q40 -24 45 -28q21 -16 27 -40z" />
    <glyph glyph-name="two" unicode="2" 
d="M1182 410q11 -14 13 -48q1 -27 -4 -69q-3 -24 -11 -70q-9 -50 -9 -54q0 -2 -1.5 -12t-2.5 -17q-1 -14 -5 -37q-4 -22 -8 -34q-6 -17 -17 -24q-27 -21 -53 -13t-54 15q-78 18 -170 20q-84 1 -177 -8q-89 -9 -177 -21q-102 -14 -170 -20q-29 -2 -61 1q-37 3 -52 28
q-3 4 -3 44v233q0 6 -2 42t-2 55q0 21 2 55q1 25 9 37q14 26 76 49q75 28 133 53q74 32 145 80t107 126q11 24 16 53q7 38 8 72q2 49 0 71q-3 35 -15 54q-19 32 -49 47q-29 14 -63 11q-31 -3 -60 -21q-30 -19 -44 -50q60 23 97 -1t52 -70q15 -48 7 -99q-9 -55 -39 -92
q-51 -62 -120 -84q-72 -23 -136 -12q-66 12 -123 58q-56 46 -83 122q-51 146 -23 270q29 124 111 213q82 88 209 129q126 41 270 20q54 -8 102 -30q50 -23 90 -56q47 -38 77 -72q38 -43 65 -84q74 -110 82 -225q8 -116 -29 -221q-38 -108 -108 -207q-68 -96 -155 -178
q17 4 80 11q51 6 106 6q50 0 102 -10q46 -9 67 -36z" />
    <glyph glyph-name="three" unicode="3" horiz-adv-x="1239" 
d="M1081 886q-28 -61 -82 -107q-53 -46 -117 -67q112 -58 158 -150q45 -89 34 -187q-10 -95 -73 -185q-59 -85 -163 -141q-100 -53 -237 -59q-135 -6 -294 63q-23 9 -45 21q-23 12 -43 28q-3 2 -16.5 15t-22.5 21q-15 13 -41 43q-19 23 -30 48q-11 26 -5 53q4 16 33 54
q28 37 65 77q38 41 72 68q35 28 54 26q33 -5 52 -25q21 -23 44 -38q30 -21 72 -36q43 -15 80 -11q17 2 34 11q12 7 27 25q11 14 16 33q5 18 -2 36q-14 37 -57 47t-96 12q-45 1 -97 3q-48 2 -62 16q-11 11 -14 50q-3 37 -3 83q0 45 3 86q1 16 5 58q2 30 21 39t48 7
q23 -1 65 -10q36 -8 73 -9q42 -2 73 6q35 9 64 42q18 20 29 55t-2 61q-15 32 -46 43q-32 11 -70 7q-42 -5 -81 -16q-8 -2 -79 -25q-15 -5 -38 -13t-27 -9q-30 -10 -38 -6q-10 4 -25 31q-11 21 -29 61q-6 13 -15.5 35.5t-12.5 30.5q-12 28 -21 46q-3 5 -10 19q-2 3 -7 11.5
t-7 13.5q-6 13 -9 26t1 20q14 29 72 53q57 24 144 39q84 15 184 18t196 -12q93 -15 176 -53t128 -101q47 -65 50 -158q3 -91 -56 -223z" />
    <glyph glyph-name="four" unicode="4" horiz-adv-x="1214" 
d="M1105 193q4 -20 6 -57q2 -29 -4 -47q-12 -31 -42 -50q-11 -6 -40 -12q-31 -7 -64 -11q-32 -4 -77 -9q-26 -3 -77 -5q-26 -1 -63 1q-27 2 -37 8q-24 14 -38 59q-13 41 -19 95q-5 45 -7 103q-1 34 -1 77q-16 -2 -114 -10q-66 -7 -144 -7t-137 11q-66 12 -100 42
q-35 33 -42 113q-8 82 4 183q11 99 38 216q24 106 56 210q30 97 60 168q31 71 51 87q15 10 43 14q40 6 64 7q35 1 66 0q8 0 48 -4q29 -6 53 -13q29 -9 41 -31t4 -69q-7 -42 -26 -106q-17 -57 -42 -127q-29 -80 -44 -129q-20 -65 -32 -115q-11 -49 -3 -81q9 -9 37 -9
q38 0 59 2t61 8q8 1 17.5 2.5t16.5 3t11 1.5q4 106 6 213q2 142 2 213q0 11 -2 75q-2 49 3 100t19 89q15 39 49 45q24 6 70 11q60 7 106 7q53 0 97 -11q43 -11 44 -39q4 -32 -3 -80q-8 -56 -11 -81q-10 -94 -17 -233q-6 -128 -5 -243q1 -116 11 -245q7 -100 27 -232
q2 -27 8 -50q2 -8 6.5 -27.5t6.5 -30.5z" />
    <glyph glyph-name="five" unicode="5" horiz-adv-x="1292" 
d="M1185 1384q9 -14 0 -39q-3 -8 -5.5 -15t-4.5 -14t-3 -10q-9 -23 -20 -75q-20 -95 -22 -106q-12 -54 -24 -99t-24 -54q-24 -17 -80 -10q-50 7 -122 25q-51 13 -126 35q-64 19 -94 20q-23 2 -37 -12q-13 -13 -23 -33q-8 -17 -10 -33q-2 -15 3 -17q30 -12 66 -12q49 0 74 -1
q45 -2 80 -8q41 -7 86 -37q105 -69 157 -179q53 -113 52 -231q-1 -120 -53 -232q-52 -114 -154 -183q-57 -40 -146 -63q-90 -24 -178 -25q-95 -2 -183 19q-87 20 -158 65q-68 43 -106 114q-38 69 -24 167q14 100 73 165q61 67 131 94q72 28 137 13q66 -15 91 -73
q15 -37 7 -82q-7 -40 -17 -82q51 -12 86 8q36 20 52 56t15 79t-25 82q-35 58 -80 80q-49 24 -97 28q-51 5 -105 0q-57 -5 -108 1q-33 4 -47 20t-19 47q0 10 6 40q2 12 17 96q2 10 10 55t13 72q11 64 24 130q4 20 10.5 55.5t9.5 50.5q10 48 13 55q4 12 17 48q10 25 30 40
q28 23 67 19q28 -1 57 -8q8 -2 17 -3.5t20 -3t17 -2.5q72 -12 145 -15q80 -3 145 -2q24 0 72 1t72 1q73 2 145 -3q15 -1 42 -3q26 -1 36 -16z" />
    <glyph glyph-name="six" unicode="6" horiz-adv-x="1236" 
d="M1093 677q47 -119 42 -230q-5 -113 -53 -200q-49 -88 -143 -147q-93 -59 -222 -72q-55 -5 -125 -7q-57 -1 -122 12q-58 12 -113 41q-52 27 -95 80q-48 57 -85 143q-33 77 -54 179q-20 95 -21 196q-1 91 17 195q17 93 54 174q36 77 97 137q77 74 181 124q106 51 208 71
l36 6q11 2 59 4q30 2 51 -4q23 -6 15 -23q11 -7 19 -23q7 -15 12 -35q3 -13 9 -37q5 -19 6 -29q3 -27 5 -35q3 -15 7 -49q3 -26 3 -47q0 -23 -6 -30q-14 -21 -44 -29q-44 -8 -96 -13q-50 -5 -97 -19q-53 -16 -105 -44q-49 -26 -84 -65t-51 -90q-17 -52 -8 -116
q79 107 196 151q118 44 247 23q77 -14 155 -64q75 -48 105 -128zM696 385q6 40 -7 75q-12 32 -35 49t-48 21q-28 5 -45 -10q-19 -16 -26 -47t10 -84q9 -32 32 -52q22 -19 47 -21q24 -2 45 15t27 54z" />
    <glyph glyph-name="seven" unicode="7" horiz-adv-x="1183" 
d="M1079 1197q5 -10 -4 -32q-7 -16 -20 -30q-20 -22 -31 -34q-4 -4 -15 -17t-17 -19q-18 -18 -26 -30q-45 -60 -85 -149q-37 -80 -72 -180q-31 -87 -55 -185q-23 -93 -36 -166q-3 -13 -13 -83q-9 -62 -18 -126q-2 -15 -25 -166q-9 -13 -23 -15q-16 -2 -28 2q-62 15 -103 29
q-57 20 -102 32q-10 1 -32 6q-6 1 -13 2t-15.5 2t-13.5 2q-28 4 -40 7q-18 5 -25 10q-25 16 -25 53q0 19 16 68q22 68 36 110q5 16 40 112q26 72 28 77q59 158 127 300q20 44 43.5 93t52.5 108.5t45 92.5q5 11 10 23q6 16 9 25q-82 1 -175 -11q-91 -12 -163 -54l-20 -15
q-5 -4 -27 -17q-10 -6 -28 -14q-13 -6 -23 -4q-12 1 -18 17q-6 14 -9 34q-2 13 -4 37q-2 20 -3 29q-6 26 -17 59q-18 54 -27 83q-18 58 -23 78q-10 40 -10 45q4 32 29 39q34 8 52 9q78 4 164 -2q77 -6 164 -4q129 5 244 19q97 12 241 39q21 4 32 -13q9 -14 14 -33
q8 -54 8 -109q0 -56 17 -107q6 -15 12 -27z" />
    <glyph glyph-name="eight" unicode="8" horiz-adv-x="1220" 
d="M1104 506q23 -91 8 -186q-15 -93 -69 -171q-53 -77 -150 -127q-96 -49 -232 -51q-161 -5 -274 46q-112 50 -180 130q-67 78 -91 179q-24 99 -6 194q18 93 77 175q59 81 153 124q-58 29 -95 87q-38 60 -53 126t-1 135q13 66 60 114q46 46 99 76q56 31 117 48q67 20 143 25
q69 4 147 -4q86 -8 148 -47q63 -40 99 -95q38 -57 48 -125q10 -67 -7 -135q-17 -67 -63 -125q-48 -60 -122 -95q96 -47 159 -127q61 -77 85 -171zM485 1037q-19 -29 8 -65q13 -17 39 -18q28 -2 61 6t65 22q30 14 51 33q19 18 19 37q0 18 -30 38q-29 16 -73 13
q-43 -3 -84 -21q-38 -17 -56 -45zM751 428q27 37 -2 99q-12 25 -40 37q-30 13 -64 14q-39 2 -72 -8q-36 -10 -63 -30q-25 -18 -38 -47q-12 -27 2 -64q8 -19 15 -27q29 -29 84 -35t103 9t75 52z" />
    <glyph glyph-name="nine" unicode="9" horiz-adv-x="1259" 
d="M1150 962q10 -94 4 -202q-6 -99 -28 -203q-21 -96 -57 -179q-36 -82 -86 -134q-86 -90 -188 -139q-103 -48 -221 -69q-16 -3 -36 -5q-26 -3 -60 -6q-24 -2 -70 -4q-36 -1 -66 3q-31 5 -46 13q-17 9 -11 29q-9 8 -14 25q-6 21 -8 36q-2 13 -2 38v70v54q2 35 5 52
q5 26 12 35q20 23 49 23q74 2 114 1q62 -2 115 4q54 6 109 26q53 20 96 66q39 40 62 90q22 47 22 107q-42 -42 -87 -71q-49 -32 -102 -46q-93 -29 -198 -18t-188 64q-33 21 -63 48q-33 30 -52 61q-40 67 -49 157q-9 91 7 180q16 88 61 170q43 78 106 125q75 53 160 72
q92 20 176 16q82 -6 118 -10q62 -8 113 -25t102 -49q48 -30 89 -80q48 -58 74 -142q28 -88 38 -183zM736 967q7 34 1 73q-8 40 -24 62q-27 35 -52 36q-27 2 -46 -16q-21 -20 -33 -49q-12 -30 -12 -64q0 -33 15 -62q15 -28 50 -40q43 -15 69 5q24 19 32 55z" />
    <glyph glyph-name="colon" unicode=":" horiz-adv-x="694" 
d="M500 384q43 -33 63 -80q19 -46 18 -98q-1 -51 -26 -99q-23 -44 -68 -80q-44 -35 -107 -44q-45 -8 -88 4q-47 13 -81 36q-38 26 -65 62q-28 38 -37 78q-15 63 6 115q21 53 63 89q45 39 98 54q56 16 114 7q68 -12 110 -44zM578 925q20 -57 11 -113q-10 -60 -48 -106
q-40 -48 -119 -75q-66 -23 -123 -7q-56 16 -100 55q-41 36 -64 92q-23 55 -17 109q6 55 42 103q37 49 111 76q77 27 139 12t105 -52t63 -94z" />
    <glyph glyph-name="semicolon" unicode=";" horiz-adv-x="718" 
d="M238 564q-64 43 -91 110q-28 68 -12 139q17 74 93 125q65 44 137 44q74 0 130 -34q58 -35 89 -98q32 -66 13 -147q-7 -32 -29 -63q-21 -30 -51 -54q-29 -23 -64 -40t-67 -18q-84 -7 -148 36zM614 146q12 -79 -14 -155q-25 -75 -88 -133q-62 -57 -168 -77q-30 -6 -64 5
t-41 44q-9 45 22 61q21 11 74 30q45 16 76 39q34 25 33 86q-32 -45 -85 -60q-51 -14 -105 -2q-52 12 -94 49q-41 36 -53 92q-9 50 -1 93q9 46 34 83q26 38 62 64q39 28 87 37q90 16 160 -17q69 -33 111 -96t54 -143z" />
    <glyph glyph-name="equal" unicode="=" horiz-adv-x="1071" 
d="M968 300q2 -30 -10 -42q-8 -8 -30 -10q-21 -1 -46 0q-33 2 -49 5t-35 3q-129 10 -229 9q-118 -2 -230 -9q-15 -2 -45 -4l-45 -3q-47 -5 -91 0q-12 2 -16 3q-8 2 -13 8q-9 9 -15 43q-7 36 -8 73q-2 51 -1 74q2 40 5 51q5 15 10 25q6 12 17 19t58 10q41 3 112 1
q96 -2 141 -4q68 -3 148 -6l130 -5q64 -2 87 2q5 1 16.5 2.5t15.5 2.5q19 3 40 3q18 0 36 -5q17 -4 24 -18q6 -12 11 -39q3 -16 5 -50q1 -17 1 -51q0 -20 2 -42q3 -34 4 -46zM124 648q-9 8 -14 32t-6 50q-1 18 -1 53v39v52q1 25 17 47q13 16 29 20q24 6 38 7q98 9 198 -1
q103 -11 201 -18q72 -6 141 0q76 7 140 8q10 0 36 -2q18 -1 34 -16q8 -6 14 -45q2 -11 9 -84q4 -40 4 -85q0 -40 -4 -47q-8 -15 -25 -20q-19 -5 -39 -4q-28 2 -42 4q-8 1 -33 4q-159 16 -305 10q-152 -6 -305 -15q-22 -2 -46 -2q-29 0 -41 13z" />
    <glyph glyph-name="question" unicode="?" horiz-adv-x="1253" 
d="M659 446q64 -40 80 -94q17 -58 -1 -111q-19 -56 -66 -96q-47 -39 -114 -44q-55 -4 -111 23q-54 26 -88 74q-43 59 -26 121t65 104t121 53q71 10 140 -30zM1140 1258q14 -62 9 -123q-4 -61 -26 -121q-21 -59 -57 -101q-30 -37 -61 -61q-23 -18 -71 -54t-70 -54
q-32 -26 -56 -63q-17 -23 -23 -60q-6 -40 -13 -69q-8 -35 -19 -53q-13 -21 -40 -9q-78 32 -139 53q-76 26 -142 41q-10 2 -17 0q-6 -2 -14 0q-15 5 -18 17q-3 14 0 31q2 14 8 32q7 22 8 25q21 61 59 96q43 40 84 71q40 31 81 68q40 36 55 80q20 50 5 98t-46 76
q-32 29 -72 32q-38 3 -72 -34q45 -14 60 -59t11 -86q-7 -81 -48 -125q-40 -44 -96 -54q-55 -10 -116 9q-62 20 -110 60q-50 42 -75 100q-26 59 -12 132q29 152 111 251t194 145q108 45 244 36q133 -9 263 -76q46 -25 95 -63q48 -37 79 -81q33 -45 47 -107z" />
    <glyph glyph-name="A" unicode="A" horiz-adv-x="1228" 
d="M1114 908q15 -99 13 -211q-2 -116 -10 -213q-8 -91 -27 -195q-16 -89 -36 -158q-6 -23 -20 -52q-8 -17 -30 -45q-12 -14 -35 -18q-20 -4 -51 -2q-18 1 -52 7q-36 6 -43 7q-95 13 -133 29q-35 15 -35 43q0 30 22 77q25 54 43 122q-63 5 -109 14q-54 11 -109 15
q0 -18 3 -58q2 -27 2 -86q0 -58 -2 -83q-3 -36 -15 -44q-21 -14 -77 -13q-62 2 -123 13q-72 13 -119 29q-53 18 -61 41l-4 12q-2 10 -2 11q-5 93 0 217q5 127 22 253q17 122 55 257q36 127 97 230t151 172t214 84q114 14 197 -18q82 -31 137 -94q56 -64 89 -152t48 -191z
M789 722q3 52 0 106q-3 53 -15 91t-39 53t-73 -10q-38 -21 -63 -66q-25 -44 -40 -98q-16 -59 -23 -107q-1 -8 -6 -43t-7 -51q58 4 126 -4q62 -7 124 -24q1 8 8 59q4 31 8 94z" />
    <glyph glyph-name="A" unicode="&#xc5;" horiz-adv-x="1228" 
d="M1114 908q15 -99 13 -211q-2 -116 -10 -213q-8 -91 -27 -195q-16 -89 -36 -158q-6 -23 -20 -52q-8 -17 -30 -45q-12 -14 -35 -18q-20 -4 -51 -2q-18 1 -52 7q-36 6 -43 7q-95 13 -133 29q-35 15 -35 43q0 30 22 77q25 54 43 122q-63 5 -109 14q-54 11 -109 15
q0 -18 3 -58q2 -27 2 -86q0 -58 -2 -83q-3 -36 -15 -44q-21 -14 -77 -13q-62 2 -123 13q-72 13 -119 29q-53 18 -61 41l-4 12q-2 10 -2 11q-5 93 0 217q5 127 22 253q17 122 55 257q36 127 97 230t151 172t214 84q114 14 197 -18q82 -31 137 -94q56 -64 89 -152t48 -191z
M789 722q3 52 0 106q-3 53 -15 91t-39 53t-73 -10q-38 -21 -63 -66q-25 -44 -40 -98q-16 -59 -23 -107q-1 -8 -6 -43t-7 -51q58 4 126 -4q62 -7 124 -24q1 8 8 59q4 31 8 94z" />
    <glyph glyph-name="A" unicode="&#xc4;" horiz-adv-x="1228" 
d="M1114 908q15 -99 13 -211q-2 -116 -10 -213q-8 -91 -27 -195q-16 -89 -36 -158q-6 -23 -20 -52q-8 -17 -30 -45q-12 -14 -35 -18q-20 -4 -51 -2q-18 1 -52 7q-36 6 -43 7q-95 13 -133 29q-35 15 -35 43q0 30 22 77q25 54 43 122q-63 5 -109 14q-54 11 -109 15
q0 -18 3 -58q2 -27 2 -86q0 -58 -2 -83q-3 -36 -15 -44q-21 -14 -77 -13q-62 2 -123 13q-72 13 -119 29q-53 18 -61 41l-4 12q-2 10 -2 11q-5 93 0 217q5 127 22 253q17 122 55 257q36 127 97 230t151 172t214 84q114 14 197 -18q82 -31 137 -94q56 -64 89 -152t48 -191z
M789 722q3 52 0 106q-3 53 -15 91t-39 53t-73 -10q-38 -21 -63 -66q-25 -44 -40 -98q-16 -59 -23 -107q-1 -8 -6 -43t-7 -51q58 4 126 -4q62 -7 124 -24q1 8 8 59q4 31 8 94z" />
    <glyph glyph-name="A" unicode="&#xc3;" horiz-adv-x="1228" 
d="M1114 908q15 -99 13 -211q-2 -116 -10 -213q-8 -91 -27 -195q-16 -89 -36 -158q-6 -23 -20 -52q-8 -17 -30 -45q-12 -14 -35 -18q-20 -4 -51 -2q-18 1 -52 7q-36 6 -43 7q-95 13 -133 29q-35 15 -35 43q0 30 22 77q25 54 43 122q-63 5 -109 14q-54 11 -109 15
q0 -18 3 -58q2 -27 2 -86q0 -58 -2 -83q-3 -36 -15 -44q-21 -14 -77 -13q-62 2 -123 13q-72 13 -119 29q-53 18 -61 41l-4 12q-2 10 -2 11q-5 93 0 217q5 127 22 253q17 122 55 257q36 127 97 230t151 172t214 84q114 14 197 -18q82 -31 137 -94q56 -64 89 -152t48 -191z
M789 722q3 52 0 106q-3 53 -15 91t-39 53t-73 -10q-38 -21 -63 -66q-25 -44 -40 -98q-16 -59 -23 -107q-1 -8 -6 -43t-7 -51q58 4 126 -4q62 -7 124 -24q1 8 8 59q4 31 8 94z" />
    <glyph glyph-name="A" unicode="&#xc2;" horiz-adv-x="1228" 
d="M1114 908q15 -99 13 -211q-2 -116 -10 -213q-8 -91 -27 -195q-16 -89 -36 -158q-6 -23 -20 -52q-8 -17 -30 -45q-12 -14 -35 -18q-20 -4 -51 -2q-18 1 -52 7q-36 6 -43 7q-95 13 -133 29q-35 15 -35 43q0 30 22 77q25 54 43 122q-63 5 -109 14q-54 11 -109 15
q0 -18 3 -58q2 -27 2 -86q0 -58 -2 -83q-3 -36 -15 -44q-21 -14 -77 -13q-62 2 -123 13q-72 13 -119 29q-53 18 -61 41l-4 12q-2 10 -2 11q-5 93 0 217q5 127 22 253q17 122 55 257q36 127 97 230t151 172t214 84q114 14 197 -18q82 -31 137 -94q56 -64 89 -152t48 -191z
M789 722q3 52 0 106q-3 53 -15 91t-39 53t-73 -10q-38 -21 -63 -66q-25 -44 -40 -98q-16 -59 -23 -107q-1 -8 -6 -43t-7 -51q58 4 126 -4q62 -7 124 -24q1 8 8 59q4 31 8 94z" />
    <glyph glyph-name="A" unicode="&#xc0;" horiz-adv-x="1228" 
d="M1114 908q15 -99 13 -211q-2 -116 -10 -213q-8 -91 -27 -195q-16 -89 -36 -158q-6 -23 -20 -52q-8 -17 -30 -45q-12 -14 -35 -18q-20 -4 -51 -2q-18 1 -52 7q-36 6 -43 7q-95 13 -133 29q-35 15 -35 43q0 30 22 77q25 54 43 122q-63 5 -109 14q-54 11 -109 15
q0 -18 3 -58q2 -27 2 -86q0 -58 -2 -83q-3 -36 -15 -44q-21 -14 -77 -13q-62 2 -123 13q-72 13 -119 29q-53 18 -61 41l-4 12q-2 10 -2 11q-5 93 0 217q5 127 22 253q17 122 55 257q36 127 97 230t151 172t214 84q114 14 197 -18q82 -31 137 -94q56 -64 89 -152t48 -191z
M789 722q3 52 0 106q-3 53 -15 91t-39 53t-73 -10q-38 -21 -63 -66q-25 -44 -40 -98q-16 -59 -23 -107q-1 -8 -6 -43t-7 -51q58 4 126 -4q62 -7 124 -24q1 8 8 59q4 31 8 94z" />
    <glyph glyph-name="B" unicode="B" horiz-adv-x="1224" 
d="M1115 1021q11 -67 5 -143q-6 -70 -34 -137q-26 -62 -77 -104q-27 -23 -66 -41q-24 -11 -70 -31q62 -40 101 -94q39 -56 52 -111q13 -53 3 -114q-9 -58 -42 -106q-35 -51 -85 -85q-53 -37 -125 -50q-29 -6 -73 -5q-69 2 -100 4q-53 3 -101 9q-11 1 -38 4t-37 5
q-28 6 -67 11q-31 4 -95 16q-48 9 -90 21q-43 12 -56 27q-16 15 -17 62q-2 47 3 110q4 63 15 135q14 96 22 141q5 26 12 70t8 52q3 20 7.5 47t5.5 34q1 22 3 74q1 18 5 114q3 72 6 133q4 87 8 129q5 52 14 103q8 44 19 57q16 18 30 26q26 15 76 21q46 5 108 7q57 2 111 -3
q67 -6 84 -9q66 -12 128 -30q63 -18 120 -48q63 -33 106 -72q49 -44 81 -104q28 -52 40 -125zM673 397q6 30 -35 62q-42 33 -142 45q-6 -42 -12 -63q-9 -30 -9 -63q86 -33 139 -21t59 40zM769 878q9 23 -3 46q-13 24 -36 43t-52 34q-27 14 -56 19t-43 -1q-16 -6 -19 -26
q0 -3 -4 -35q-8 -51 -11 -71q-2 -12 -4.5 -36t-3.5 -36l11 -4q41 -12 89 -3q51 10 85 28q38 20 47 42z" />
    <glyph glyph-name="C" unicode="C" horiz-adv-x="1208" 
d="M1093 309q13 -46 13 -69q0 -28 -30 -55q-26 -24 -72 -49q-35 -19 -84 -38q-39 -15 -66 -22q-98 -27 -197 -27t-196 27q-143 41 -226 139q-85 100 -115 225q-30 124 -9 262q21 137 87 254q65 116 175 197t256 96q17 0 30 1t39 1q27 0 38 -1q18 -2 26 -7q10 -8 16 -19
q9 -16 14 -30t10 -32q6 -22 8 -26q7 -17 12 -36q5 -17 15 -53q2 -9 13 -51q6 -23 4 -34q-4 -22 -28 -34q-22 -11 -58 -22q-34 -10 -75 -24q-44 -15 -77 -38q-34 -24 -62 -66q-26 -40 -34 -108q-6 -45 4 -86q10 -40 34 -77q22 -34 59 -57q38 -24 82 -25q47 -4 89 11
q51 19 75 33q33 19 57 36t37 18q29 2 56 -35q26 -35 46 -84q24 -58 34 -95z" />
    <glyph glyph-name="C" unicode="&#xc7;" horiz-adv-x="1208" 
d="M1093 309q13 -46 13 -69q0 -28 -30 -55q-26 -24 -72 -49q-35 -19 -84 -38q-39 -15 -66 -22q-98 -27 -197 -27t-196 27q-143 41 -226 139q-85 100 -115 225q-30 124 -9 262q21 137 87 254q65 116 175 197t256 96q17 0 30 1t39 1q27 0 38 -1q18 -2 26 -7q10 -8 16 -19
q9 -16 14 -30t10 -32q6 -22 8 -26q7 -17 12 -36q5 -17 15 -53q2 -9 13 -51q6 -23 4 -34q-4 -22 -28 -34q-22 -11 -58 -22q-34 -10 -75 -24q-44 -15 -77 -38q-34 -24 -62 -66q-26 -40 -34 -108q-6 -45 4 -86q10 -40 34 -77q22 -34 59 -57q38 -24 82 -25q47 -4 89 11
q51 19 75 33q33 19 57 36t37 18q29 2 56 -35q26 -35 46 -84q24 -58 34 -95z" />
    <glyph glyph-name="D" unicode="D" horiz-adv-x="1255" 
d="M1151 848q10 -129 -18 -265q-27 -132 -90 -247t-161 -195q-51 -42 -119 -69q-61 -24 -141 -41q-64 -13 -147 -20q-84 -7 -137 -8q-33 -1 -73 6q-41 8 -67 28q-3 1 -5 9q-1 2 -2.5 6t-1.5 5q-34 119 -54 251q-18 120 -26 263q-7 133 -6 266q2 147 7 259q0 16 3 57
q4 54 7 83q4 41 9 79q5 36 12 48q15 25 58 40q46 16 100 23q66 9 121 10q65 2 125 0q55 -1 110 -8q58 -7 76 -11q129 -33 220 -119q89 -84 139 -200q51 -117 61 -250zM810 798q4 52 -19 105q-13 27 -35 54q-21 26 -50 41q-21 10 -38 15q-22 6 -47 9q-21 3 -47 1
q-25 -2 -38 -9q-17 -9 -26 -43q-10 -36 -14 -80q-4 -46 -3 -98q1 -53 6 -99q4 -44 14 -83q9 -37 18 -50q22 -31 55 -31q35 0 71 21q32 19 70 60q34 37 57 86q21 46 26 101z" />
    <glyph glyph-name="E" unicode="E" horiz-adv-x="1110" 
d="M1006 349q2 -48 2 -77q0 -45 -4 -76q-7 -56 -8 -60q-4 -25 -13 -30q-10 -6 -45 -11q-33 -4 -80 -6q-62 -2 -100 -2q-70 0 -103 -1t-91 -1q-34 0 -60 -2q-66 -6 -97 -10q-28 -4 -94 -16q-3 -1 -12 -2.5t-14 -2.5q-21 -4 -35 -5q-24 -2 -33 -2q-16 0 -23 4q-10 9 -16 24
q-7 19 -7 28q0 303 -14 569q-15 290 -55 565q-2 12 -2 22q0 13 6 22q15 23 78 39q57 15 144 28q78 12 150 18q23 2 56.5 5t43.5 4q6 0 76 8q37 4 115 8q60 3 108 -3q49 -6 56 -25q3 -6 5 -24q1 -11 1 -36q0 -24 -1 -36t-1 -28q0 -4 2 -32q0 -7 1.5 -21t2.5 -22q1 -15 3 -41
q1 -16 -1 -25q-7 -16 -37 -25q-35 -10 -77 -17q-58 -10 -97 -13q-67 -6 -101 -10q-53 -7 -85 -13q-35 -7 -50 -20q-8 -7 -11 -22t-1 -37q1 -13 5 -37q3 -20 7 -26l13 -7q34 0 82 14q51 15 105 24q58 10 98 4q44 -6 59 -46q14 -35 12 -71t0 -73q0 -14 1 -24q0 -4 0.5 -9.5
t1.5 -12.5t1 -11q2 -17 0 -32q-2 -18 -4 -21q-9 -15 -55 -24q-37 -7 -99 -16q-74 -10 -105 -13q-53 -5 -70 -10q0 -32 3 -67q6 -63 6 -67q76 5 145 22q72 18 144 24q13 1 35 3q13 1 41 1q18 0 40 -5q16 -4 31 -15q10 -8 14 -33q6 -33 7 -62z" />
    <glyph glyph-name="E" unicode="&#xcb;" horiz-adv-x="1110" 
d="M1006 349q2 -48 2 -77q0 -45 -4 -76q-7 -56 -8 -60q-4 -25 -13 -30q-10 -6 -45 -11q-33 -4 -80 -6q-62 -2 -100 -2q-70 0 -103 -1t-91 -1q-34 0 -60 -2q-66 -6 -97 -10q-28 -4 -94 -16q-3 -1 -12 -2.5t-14 -2.5q-21 -4 -35 -5q-24 -2 -33 -2q-16 0 -23 4q-10 9 -16 24
q-7 19 -7 28q0 303 -14 569q-15 290 -55 565q-2 12 -2 22q0 13 6 22q15 23 78 39q57 15 144 28q78 12 150 18q23 2 56.5 5t43.5 4q6 0 76 8q37 4 115 8q60 3 108 -3q49 -6 56 -25q3 -6 5 -24q1 -11 1 -36q0 -24 -1 -36t-1 -28q0 -4 2 -32q0 -7 1.5 -21t2.5 -22q1 -15 3 -41
q1 -16 -1 -25q-7 -16 -37 -25q-35 -10 -77 -17q-58 -10 -97 -13q-67 -6 -101 -10q-53 -7 -85 -13q-35 -7 -50 -20q-8 -7 -11 -22t-1 -37q1 -13 5 -37q3 -20 7 -26l13 -7q34 0 82 14q51 15 105 24q58 10 98 4q44 -6 59 -46q14 -35 12 -71t0 -73q0 -14 1 -24q0 -4 0.5 -9.5
t1.5 -12.5t1 -11q2 -17 0 -32q-2 -18 -4 -21q-9 -15 -55 -24q-37 -7 -99 -16q-74 -10 -105 -13q-53 -5 -70 -10q0 -32 3 -67q6 -63 6 -67q76 5 145 22q72 18 144 24q13 1 35 3q13 1 41 1q18 0 40 -5q16 -4 31 -15q10 -8 14 -33q6 -33 7 -62z" />
    <glyph glyph-name="E" unicode="&#xca;" horiz-adv-x="1110" 
d="M1006 349q2 -48 2 -77q0 -45 -4 -76q-7 -56 -8 -60q-4 -25 -13 -30q-10 -6 -45 -11q-33 -4 -80 -6q-62 -2 -100 -2q-70 0 -103 -1t-91 -1q-34 0 -60 -2q-66 -6 -97 -10q-28 -4 -94 -16q-3 -1 -12 -2.5t-14 -2.5q-21 -4 -35 -5q-24 -2 -33 -2q-16 0 -23 4q-10 9 -16 24
q-7 19 -7 28q0 303 -14 569q-15 290 -55 565q-2 12 -2 22q0 13 6 22q15 23 78 39q57 15 144 28q78 12 150 18q23 2 56.5 5t43.5 4q6 0 76 8q37 4 115 8q60 3 108 -3q49 -6 56 -25q3 -6 5 -24q1 -11 1 -36q0 -24 -1 -36t-1 -28q0 -4 2 -32q0 -7 1.5 -21t2.5 -22q1 -15 3 -41
q1 -16 -1 -25q-7 -16 -37 -25q-35 -10 -77 -17q-58 -10 -97 -13q-67 -6 -101 -10q-53 -7 -85 -13q-35 -7 -50 -20q-8 -7 -11 -22t-1 -37q1 -13 5 -37q3 -20 7 -26l13 -7q34 0 82 14q51 15 105 24q58 10 98 4q44 -6 59 -46q14 -35 12 -71t0 -73q0 -14 1 -24q0 -4 0.5 -9.5
t1.5 -12.5t1 -11q2 -17 0 -32q-2 -18 -4 -21q-9 -15 -55 -24q-37 -7 -99 -16q-74 -10 -105 -13q-53 -5 -70 -10q0 -32 3 -67q6 -63 6 -67q76 5 145 22q72 18 144 24q13 1 35 3q13 1 41 1q18 0 40 -5q16 -4 31 -15q10 -8 14 -33q6 -33 7 -62z" />
    <glyph glyph-name="E" unicode="&#xc8;" horiz-adv-x="1110" 
d="M1006 349q2 -48 2 -77q0 -45 -4 -76q-7 -56 -8 -60q-4 -25 -13 -30q-10 -6 -45 -11q-33 -4 -80 -6q-62 -2 -100 -2q-70 0 -103 -1t-91 -1q-34 0 -60 -2q-66 -6 -97 -10q-28 -4 -94 -16q-3 -1 -12 -2.5t-14 -2.5q-21 -4 -35 -5q-24 -2 -33 -2q-16 0 -23 4q-10 9 -16 24
q-7 19 -7 28q0 303 -14 569q-15 290 -55 565q-2 12 -2 22q0 13 6 22q15 23 78 39q57 15 144 28q78 12 150 18q23 2 56.5 5t43.5 4q6 0 76 8q37 4 115 8q60 3 108 -3q49 -6 56 -25q3 -6 5 -24q1 -11 1 -36q0 -24 -1 -36t-1 -28q0 -4 2 -32q0 -7 1.5 -21t2.5 -22q1 -15 3 -41
q1 -16 -1 -25q-7 -16 -37 -25q-35 -10 -77 -17q-58 -10 -97 -13q-67 -6 -101 -10q-53 -7 -85 -13q-35 -7 -50 -20q-8 -7 -11 -22t-1 -37q1 -13 5 -37q3 -20 7 -26l13 -7q34 0 82 14q51 15 105 24q58 10 98 4q44 -6 59 -46q14 -35 12 -71t0 -73q0 -14 1 -24q0 -4 0.5 -9.5
t1.5 -12.5t1 -11q2 -17 0 -32q-2 -18 -4 -21q-9 -15 -55 -24q-37 -7 -99 -16q-74 -10 -105 -13q-53 -5 -70 -10q0 -32 3 -67q6 -63 6 -67q76 5 145 22q72 18 144 24q13 1 35 3q13 1 41 1q18 0 40 -5q16 -4 31 -15q10 -8 14 -33q6 -33 7 -62z" />
    <glyph glyph-name="F" unicode="F" horiz-adv-x="1159" 
d="M1031 1377q24 -30 25 -67q1 -39 -6 -73q-2 -7 -8 -37q-2 -13 -13 -49q-8 -28 -16 -46q-10 -22 -16 -30q-20 -25 -65 -23q-41 1 -95 11q-8 1 -44.5 8t-55.5 10q-49 7 -84 -6q-19 -29 -25 -64q0 -3 -9 -68q-1 -4 -2.5 -14.5l-2.5 -17.5q-3 -22 3 -31q7 -11 48 -19
q46 -9 91 -14q62 -8 96 -13q46 -8 63 -21q22 -16 28 -57q5 -36 -1 -86q-5 -41 -22 -86q-15 -40 -36 -54q-29 -21 -66 -20q-41 2 -76 7q-17 3 -76 10q-34 4 -63 -10q-30 -14 -44 -53q-14 -41 -20 -91q-5 -47 -7 -112q-2 -60 -6 -112q-4 -50 -17 -93t-38 -59q-25 -15 -84 -18
t-122 9q-69 13 -112 36q-49 26 -50 65q-2 30 5 53q10 34 14 52q24 108 40 231q18 139 25 233q4 54 8 168q3 87 9 178q7 104 17 177q11 82 35 161q10 31 25 56q17 27 43 42q27 15 59 21q26 5 62 5q57 -1 122 -14q85 -17 122 -22q21 -3 80 -5q11 0 32 -0.5t38 -1t33 -1.5
q45 -3 97 -13q45 -9 62 -32z" />
    <glyph glyph-name="G" unicode="G" horiz-adv-x="1267" 
d="M1156 674q10 -75 10 -139q0 -66 -13 -142q-12 -71 -36 -138q-23 -65 -62 -124q-28 -43 -71 -72q-45 -31 -88 -50q-111 -49 -223 -36q-133 17 -231 66q-97 49 -165 128q-66 76 -106 184q-40 107 -56 231q-14 104 -13 196q1 96 32 194q20 66 62 136q40 67 95 128
q57 64 116 107q65 48 130 74q82 33 175 21t163 -67q88 -70 123 -154q37 -90 59 -186q2 -8 5.5 -23t5.5 -21q6 -24 2 -46t-22 -34q-16 -11 -43 -17q-23 -5 -50 -7q-31 -2 -43 -5q-35 -7 -75 -17q-39 -10 -75 -4q-38 6 -53 34q-9 17 -11 38q-1 7 -2.5 20t-1.5 19q-1 13 -9 37
q-6 19 -26 34q-21 17 -44 15q-21 -1 -43 -15q-20 -13 -36 -31q-19 -22 -26 -38q-26 -50 -31 -138t10 -173q14 -84 53 -158q37 -71 96 -97q12 -6 41 -11q20 -4 48 -2q23 1 45 11q21 9 33 29q9 16 11 31t6 30q-33 -5 -76 -6q-44 -2 -73 10q-26 9 -38 44q-12 33 -10 74t15 77
q14 37 38 48q8 5 32 7q30 2 48 2q33 0 48 -1t37 -1q18 0 55 4q15 2 45 4.5t43 3.5q18 2 46.5 3.5t36.5 2.5q37 3 39 3q15 -5 23 -14q11 -13 15 -24q4 -13 6 -29q1 -6 2.5 -14.5t1.5 -11.5z" />
    <glyph glyph-name="H" unicode="H" horiz-adv-x="1372" 
d="M1268 -17q5 -20 1 -28q-4 -11 -19 -29t-25 -22q-6 -4 -50 -6q-39 -1 -97 -3q-52 -1 -96 0q-45 2 -50 5q-10 7 -16 41q-6 37 -12 88q-7 64 -11 113q-6 85 -8 116q-1 11 -2.5 46.5t-2.5 52.5q-2 25 -5 61q-62 -12 -121 -18q-86 -9 -122 -13q2 -34 6.5 -98t6.5 -95
q5 -84 22 -193q4 -19 4 -46q0 -24 -21 -36q-4 -1 -30 -6q-10 -2 -33 -4t-32 -3q-14 -2 -42.5 -4.5t-40.5 -3.5t-40.5 -3.5t-42.5 -4.5q-24 -3 -69 -5q-29 -1 -35 0q-29 6 -44 30q-3 10 -10 59q-9 67 -17 145q-3 32 -10.5 99t-11.5 101q-10 92 -24 229q-3 32 -11 111t-12 120
q-11 105 -21 203q-9 92 -15 150t-6 69q-2 24 1 44q3 23 30 30q26 7 82 17q57 10 124 18q64 8 120 6q57 -2 71 -14q9 -10 17 -47q9 -45 14 -89q2 -13 9 -113q1 -19 3.5 -58t4.5 -59q2 -22 7 -101q1 -16 2.5 -38t1.5 -28q76 10 108 13q19 2 55 4.5t53 3.5q0 28 -4 65
q-1 11 -4 42.5t-5 50.5q-8 68 -12 104q-4 33 -8 100q-3 51 -2 82q2 38 8 51q7 13 60 25q47 11 115 19q39 5 123 11q52 4 83 4q51 0 74 -44q10 -22 10 -38v-40q0 -133 -5 -301q-4 -151 -6 -304q-1 -126 4 -303q5 -153 24 -301q1 -4 7 -30z" />
    <glyph glyph-name="I" unicode="I" horiz-adv-x="868" 
d="M756 1216q17 -70 3 -133q-15 -68 -65 -124q-51 -57 -142 -85q3 0 13 -2q7 -2 11 -5q9 -8 11 -39q1 -26 -2 -73q-3 -43 -9 -93q-4 -33 -12 -95q-2 -15 -5.5 -42.5t-5.5 -39.5q-1 -12 -4 -29.5t-3 -22.5q-3 -28 -4 -51q-2 -38 -3 -84q-2 -52 -3 -97q-1 -48 -3 -94
q-1 -42 -3 -70q-1 -18 -1 -30q-4 -13 -17 -19q-15 -7 -25 -8q-51 -8 -100 -5q-69 4 -99 5q-15 0 -40 3q-17 2 -51 8q-28 5 -48 13q-22 9 -31 24q-8 15 -13 82q-4 60 -1 156q3 92 9 193q5 93 17 192q10 81 23 154q12 66 26 81q9 11 38 13q32 2 62 -1q25 -2 65 -8q32 -4 45 -6
q-68 22 -112 66t-66 95q-22 50 -20 109q1 56 27 107t74 89q50 39 118 55q93 21 164 -1q73 -23 118 -71q48 -51 64 -117z" />
    <glyph glyph-name="I" unicode="&#xcf;" horiz-adv-x="868" 
d="M756 1216q17 -70 3 -133q-15 -68 -65 -124q-51 -57 -142 -85q3 0 13 -2q7 -2 11 -5q9 -8 11 -39q1 -26 -2 -73q-3 -43 -9 -93q-4 -33 -12 -95q-2 -15 -5.5 -42.5t-5.5 -39.5q-1 -12 -4 -29.5t-3 -22.5q-3 -28 -4 -51q-2 -38 -3 -84q-2 -52 -3 -97q-1 -48 -3 -94
q-1 -42 -3 -70q-1 -18 -1 -30q-4 -13 -17 -19q-15 -7 -25 -8q-51 -8 -100 -5q-69 4 -99 5q-15 0 -40 3q-17 2 -51 8q-28 5 -48 13q-22 9 -31 24q-8 15 -13 82q-4 60 -1 156q3 92 9 193q5 93 17 192q10 81 23 154q12 66 26 81q9 11 38 13q32 2 62 -1q25 -2 65 -8q32 -4 45 -6
q-68 22 -112 66t-66 95q-22 50 -20 109q1 56 27 107t74 89q50 39 118 55q93 21 164 -1q73 -23 118 -71q48 -51 64 -117z" />
    <glyph glyph-name="I" unicode="&#xce;" horiz-adv-x="868" 
d="M756 1216q17 -70 3 -133q-15 -68 -65 -124q-51 -57 -142 -85q3 0 13 -2q7 -2 11 -5q9 -8 11 -39q1 -26 -2 -73q-3 -43 -9 -93q-4 -33 -12 -95q-2 -15 -5.5 -42.5t-5.5 -39.5q-1 -12 -4 -29.5t-3 -22.5q-3 -28 -4 -51q-2 -38 -3 -84q-2 -52 -3 -97q-1 -48 -3 -94
q-1 -42 -3 -70q-1 -18 -1 -30q-4 -13 -17 -19q-15 -7 -25 -8q-51 -8 -100 -5q-69 4 -99 5q-15 0 -40 3q-17 2 -51 8q-28 5 -48 13q-22 9 -31 24q-8 15 -13 82q-4 60 -1 156q3 92 9 193q5 93 17 192q10 81 23 154q12 66 26 81q9 11 38 13q32 2 62 -1q25 -2 65 -8q32 -4 45 -6
q-68 22 -112 66t-66 95q-22 50 -20 109q1 56 27 107t74 89q50 39 118 55q93 21 164 -1q73 -23 118 -71q48 -51 64 -117z" />
    <glyph glyph-name="I" unicode="&#xcc;" horiz-adv-x="868" 
d="M756 1216q17 -70 3 -133q-15 -68 -65 -124q-51 -57 -142 -85q3 0 13 -2q7 -2 11 -5q9 -8 11 -39q1 -26 -2 -73q-3 -43 -9 -93q-4 -33 -12 -95q-2 -15 -5.5 -42.5t-5.5 -39.5q-1 -12 -4 -29.5t-3 -22.5q-3 -28 -4 -51q-2 -38 -3 -84q-2 -52 -3 -97q-1 -48 -3 -94
q-1 -42 -3 -70q-1 -18 -1 -30q-4 -13 -17 -19q-15 -7 -25 -8q-51 -8 -100 -5q-69 4 -99 5q-15 0 -40 3q-17 2 -51 8q-28 5 -48 13q-22 9 -31 24q-8 15 -13 82q-4 60 -1 156q3 92 9 193q5 93 17 192q10 81 23 154q12 66 26 81q9 11 38 13q32 2 62 -1q25 -2 65 -8q32 -4 45 -6
q-68 22 -112 66t-66 95q-22 50 -20 109q1 56 27 107t74 89q50 39 118 55q93 21 164 -1q73 -23 118 -71q48 -51 64 -117z" />
    <glyph glyph-name="J" unicode="J" horiz-adv-x="1193" 
d="M1088 571q9 -115 -2 -222q-9 -90 -60 -182q-49 -88 -130 -139q-36 -23 -74 -36q-41 -14 -82 -21q-43 -8 -85 -12q-13 -1 -40.5 -3.5t-42.5 -4.5q-114 -9 -217 35q-101 43 -168 122q-66 78 -81 184q-15 105 43 215q33 62 78 92q46 31 92 38q49 8 89 -6q44 -15 73 -44
q30 -30 39 -72q9 -44 -11 -92q-12 -29 -36 -48q-20 -16 -45 -43q14 -19 33 -27q25 -12 54 -9t56 17q29 15 46 35q19 22 25 49q14 56 15 111q1 53 -5 112q0 7 -9 69q-2 14 -16 96q-4 21 -20 110q-13 71 -22 109q-10 41 -21 94q-8 39 -17 65q-5 13 -15 44l-9 27t-10 32
q-5 17 -14 57q-6 27 0 40q9 21 31 32q18 9 42 14q19 4 80 16q49 9 116 21q60 10 111 15q50 4 69 -4q18 -8 27 -31q1 -1 7 -45q1 -8 6.5 -45t8.5 -63q3 -23 9.5 -71t9.5 -73q3 -19 10 -70t10 -77q4 -28 17 -122q2 -14 4.5 -30t4 -25t1.5 -13q17 -129 25 -221z" />
    <glyph glyph-name="K" unicode="K" horiz-adv-x="1323" 
d="M979 832q-64 -49 -108 -79q-40 -27 -87 -56q21 -26 52 -55q53 -49 79 -71q17 -15 50 -42t41 -34q10 -8 40.5 -33.5t45.5 -38.5q54 -46 66 -57q27 -26 31 -32q15 -34 -5 -89q-18 -50 -57 -107q-36 -52 -81 -90q-44 -37 -79 -37q-34 0 -74 24q-44 26 -83 61q-44 40 -83 84
q-45 52 -77 93q-31 41 -66 89q-33 47 -47 69q0 -37 3 -77t6 -84q2 -29 4 -83q1 -38 -5 -75q-6 -38 -43 -54q-38 -17 -85 -21q-48 -5 -96 0q-50 5 -74 10q-3 1 -10 2.5t-11 2.5q-18 4 -28 7q-4 1 -13.5 3t-13.5 4q-15 6 -18 8q-18 12 -30 69q-13 59 -17 132q-5 78 -3 167
q3 164 3 170q3 87 6 148q1 19 2 37.5t2 34t1 21.5t9 127q5 74 17 172q12 99 26 165q16 75 38 109q23 35 86 47q66 13 131 4q69 -9 123 -37q55 -28 63 -77q3 -16 -3 -76q-3 -29 -16 -119q-7 -52 -20 -122q-12 -66 -13 -90l56 56q36 35 79 82q29 31 91 93q61 61 89 88
q45 44 75 68q34 28 50 32q27 7 58 -5q27 -11 57 -34q31 -24 50 -47q18 -22 35 -48q30 -48 21 -100q-9 -51 -44 -106q-34 -53 -87 -106q-58 -58 -109 -97z" />
    <glyph glyph-name="L" unicode="L" horiz-adv-x="1073" 
d="M967 359q4 -36 4 -87q0 -50 -4 -85q-5 -43 -13 -67q-9 -27 -23 -33q-6 -3 -49 -5q-41 -2 -100 0q-20 1 -63.5 1.5t-65.5 0.5q-23 0 -67.5 0.5t-66.5 1.5q-43 1 -119 1q-44 0 -78 -2q-15 -1 -39 -6q-2 0 -50 -6q-26 -3 -49 0q-24 3 -32 14q-9 10 -10 31q-1 20 0 45
q1 17 5 47q3 22 3 36q10 147 6 265q-1 44 -3.5 132.5t-4.5 133.5q-4 54 -2 130q2 69 -4 129q-2 26 -9 74q-14 87 -15 99q-6 54 -12 95q-6 45 -2 61q6 37 59 56q56 20 120 26t128 -2t85 -26q13 -12 23 -33q8 -18 13 -40q9 -57 12 -117t3 -121v-120q0 -67 4 -118q2 -35 7 -103
t8 -103q8 -104 12 -208q23 1 81 11q85 14 112 17q57 6 107 6t65 -19q6 -7 14 -40q5 -22 10 -72z" />
    <glyph glyph-name="M" unicode="M" horiz-adv-x="1619" 
d="M1515 113q3 -18 2 -30q-2 -16 -8 -22q-5 -2 -31 -6q-10 -2 -67 -8q-14 -2 -43.5 -4t-43.5 -3q-29 -3 -90 -7q-68 -5 -75 -5q-8 0 -18.5 -0.5t-16 -1t-9.5 -0.5q-15 0 -24 9q-8 8 -13 21q-6 16 -7 27q-1 6 -2.5 14t-1.5 11q-11 79 -16 175q-6 118 -7 178q0 30 -2 89t-2 88
q-1 86 -9 175q-32 -104 -52 -218q-6 -34 -18.5 -108t-19.5 -113q-5 -25 -7 -59q-1 -27 -10 -58q-4 -19 -27 -28q-29 -11 -51 -15q-17 -3 -58 -7q-8 -1 -24 -2.5t-22 -2.5q-17 -5 -46 -9t-45 5q-10 6 -24 38q-18 39 -32 78q-25 67 -34 97q-5 17 -16.5 51t-16.5 50
q-6 19 -16 51t-11 37q-15 49 -18 57q13 -166 36 -298q22 -125 46 -297q1 -9 -5 -15q-5 -5 -16 -7q-32 -7 -59 -11q-35 -5 -72 -9q-25 -3 -73 -5l-35 -2.5t-27 -1.5q-17 -2 -34 0q-18 2 -25 21q-7 20 -19 108q-10 68 -25 202q-16 135 -26 251q-4 41 -11.5 125t-11.5 126
q-13 146 -17 205q-7 101 -7 114q0 18 1 26q2 15 5 23q7 19 38 36q32 18 80 33t100 27q46 10 102 19q51 8 86 8q37 0 51 -8q23 -15 32 -48q25 -70 37 -134q16 -83 28 -139q10 -45 34 -133q15 -54 39 -132q45 137 80 299q33 152 84 297q14 41 34 57q23 18 48 22q27 4 58 3
q42 -2 66 -2q17 0 54 5q33 5 67 6q39 2 64 -2q30 -4 45 -21q11 -11 17 -63q4 -36 8 -113q2 -39 4 -119q1 -55 3 -77q16 -215 47 -435q29 -211 89 -429q3 -19 5 -25q3 -12 7 -31z" />
    <glyph glyph-name="N" unicode="N" 
d="M1195 222q1 -17 1 -53q0 -18 -2 -50q-2 -25 -6 -34q-9 -22 -40 -33q-32 -11 -67 -14q-24 -2 -73 -2q-38 0 -57 -4q-9 -1 -30 -6q-19 -4 -40 -6q-20 -2 -37 0q-18 2 -27 14q-4 4 -10 17q-5 11 -11 19q-67 112 -113 183q-56 87 -135 170q1 -5 8 -44q2 -10 5.5 -34t6.5 -38
q2 -12 7 -40t7 -44q9 -65 11 -82q5 -42 5 -67q0 -30 -4 -37q-23 2 -56 0q-48 -2 -70 -4q-48 -4 -70 -7q-38 -5 -56 -10q-11 -1 -29 -8q-28 -10 -36 -12q-17 -4 -35 -2q-15 1 -21 17q0 2 -0.5 4t-1 6t-0.5 7q-1 4 -1.5 12.5t-0.5 13.5q-1 10 -1 27v20q-2 41 -4.5 123
t-3.5 122q-5 135 -13 245q-8 111 -28 243q-18 117 -53 239q-1 4 -4 15t-5 18q-6 18 2 34q5 12 33 22q29 10 71 21q38 10 90 18q30 5 91 11q43 4 76 3q34 -2 42 -8q8 -7 17 -27q8 -19 18 -47q3 -9 16 -50q6 -18 12 -35q21 -64 50 -127q33 -70 61 -122q7 -13 20.5 -38
t24.5 -45t21 -37q40 -72 64 -120q-26 262 -37 391q-17 198 -49 388q-3 12 -5 43q-2 26 14 40q12 11 39 14q25 3 55 3q20 0 56 -2t45 -2q25 -2 61 5q41 6 80 9q42 3 73 -4q32 -7 40 -37q7 -32 -5 -63q-12 -30 -12 -61q0 -203 -1 -303q-2 -150 3 -303q5 -117 13 -209
q10 -115 10 -207q0 -22 1 -39z" />
    <glyph glyph-name="O" unicode="O" horiz-adv-x="1310" 
d="M1196 864q20 -143 6 -275q-15 -140 -67 -254q-52 -115 -147 -196q-94 -80 -232 -100q-150 -21 -269 37q-118 58 -200 163q-84 108 -130 245q-47 140 -53 279q-6 145 26 269q33 126 110 211q68 73 162 116q96 44 191 56q44 6 99 3t109 -15q61 -13 103 -32q46 -20 81 -52
q83 -79 137 -198q55 -121 74 -257zM833 590q11 59 3 124q-8 67 -28 125q-22 63 -46 98q-8 14 -28 32q-16 14 -40 29q-24 14 -45 20q-23 6 -42 0q-44 -14 -65 -53q-22 -40 -26 -92q-4 -50 5 -111q8 -55 28 -115q17 -54 44 -99q26 -45 52 -65q30 -23 70 -16t68 29q39 33 50 94
z" />
    <glyph glyph-name="O" unicode="&#xd8;" horiz-adv-x="1310" 
d="M1196 864q20 -143 6 -275q-15 -140 -67 -254q-52 -115 -147 -196q-94 -80 -232 -100q-150 -21 -269 37q-118 58 -200 163q-84 108 -130 245q-47 140 -53 279q-6 145 26 269q33 126 110 211q68 73 162 116q96 44 191 56q44 6 99 3t109 -15q61 -13 103 -32q46 -20 81 -52
q83 -79 137 -198q55 -121 74 -257zM833 590q11 59 3 124q-8 67 -28 125q-22 63 -46 98q-8 14 -28 32q-16 14 -40 29q-24 14 -45 20q-23 6 -42 0q-44 -14 -65 -53q-22 -40 -26 -92q-4 -50 5 -111q8 -55 28 -115q17 -54 44 -99q26 -45 52 -65q30 -23 70 -16t68 29q39 33 50 94
z" />
    <glyph glyph-name="O" unicode="&#xd6;" horiz-adv-x="1310" 
d="M1196 864q20 -143 6 -275q-15 -140 -67 -254q-52 -115 -147 -196q-94 -80 -232 -100q-150 -21 -269 37q-118 58 -200 163q-84 108 -130 245q-47 140 -53 279q-6 145 26 269q33 126 110 211q68 73 162 116q96 44 191 56q44 6 99 3t109 -15q61 -13 103 -32q46 -20 81 -52
q83 -79 137 -198q55 -121 74 -257zM833 590q11 59 3 124q-8 67 -28 125q-22 63 -46 98q-8 14 -28 32q-16 14 -40 29q-24 14 -45 20q-23 6 -42 0q-44 -14 -65 -53q-22 -40 -26 -92q-4 -50 5 -111q8 -55 28 -115q17 -54 44 -99q26 -45 52 -65q30 -23 70 -16t68 29q39 33 50 94
z" />
    <glyph glyph-name="O" unicode="&#xd5;" horiz-adv-x="1310" 
d="M1196 864q20 -143 6 -275q-15 -140 -67 -254q-52 -115 -147 -196q-94 -80 -232 -100q-150 -21 -269 37q-118 58 -200 163q-84 108 -130 245q-47 140 -53 279q-6 145 26 269q33 126 110 211q68 73 162 116q96 44 191 56q44 6 99 3t109 -15q61 -13 103 -32q46 -20 81 -52
q83 -79 137 -198q55 -121 74 -257zM833 590q11 59 3 124q-8 67 -28 125q-22 63 -46 98q-8 14 -28 32q-16 14 -40 29q-24 14 -45 20q-23 6 -42 0q-44 -14 -65 -53q-22 -40 -26 -92q-4 -50 5 -111q8 -55 28 -115q17 -54 44 -99q26 -45 52 -65q30 -23 70 -16t68 29q39 33 50 94
z" />
    <glyph glyph-name="O" unicode="&#xd4;" horiz-adv-x="1310" 
d="M1196 864q20 -143 6 -275q-15 -140 -67 -254q-52 -115 -147 -196q-94 -80 -232 -100q-150 -21 -269 37q-118 58 -200 163q-84 108 -130 245q-47 140 -53 279q-6 145 26 269q33 126 110 211q68 73 162 116q96 44 191 56q44 6 99 3t109 -15q61 -13 103 -32q46 -20 81 -52
q83 -79 137 -198q55 -121 74 -257zM833 590q11 59 3 124q-8 67 -28 125q-22 63 -46 98q-8 14 -28 32q-16 14 -40 29q-24 14 -45 20q-23 6 -42 0q-44 -14 -65 -53q-22 -40 -26 -92q-4 -50 5 -111q8 -55 28 -115q17 -54 44 -99q26 -45 52 -65q30 -23 70 -16t68 29q39 33 50 94
z" />
    <glyph glyph-name="O" unicode="&#xd2;" horiz-adv-x="1310" 
d="M1196 864q20 -143 6 -275q-15 -140 -67 -254q-52 -115 -147 -196q-94 -80 -232 -100q-150 -21 -269 37q-118 58 -200 163q-84 108 -130 245q-47 140 -53 279q-6 145 26 269q33 126 110 211q68 73 162 116q96 44 191 56q44 6 99 3t109 -15q61 -13 103 -32q46 -20 81 -52
q83 -79 137 -198q55 -121 74 -257zM833 590q11 59 3 124q-8 67 -28 125q-22 63 -46 98q-8 14 -28 32q-16 14 -40 29q-24 14 -45 20q-23 6 -42 0q-44 -14 -65 -53q-22 -40 -26 -92q-4 -50 5 -111q8 -55 28 -115q17 -54 44 -99q26 -45 52 -65q30 -23 70 -16t68 29q39 33 50 94
z" />
    <glyph glyph-name="P" unicode="P" horiz-adv-x="1163" 
d="M1040 1141q29 -96 17 -201q-12 -104 -70 -199q-57 -92 -161 -162q-104 -71 -254 -93q-29 -5 -66 -3q2 -13 6 -51q1 -6 13 -87q8 -55 15 -103q3 -23 13 -99q6 -45 9 -77q3 -28 1 -34q-7 -11 -17 -16q-9 -5 -26 -8q-11 -2 -29 -4q-15 -2 -24 -3q-27 -2 -65 -7
q-37 -5 -96 -10q-51 -4 -94 -3q-41 1 -54 11q-10 10 -14 24q-3 10 -3 27q0 205 -12 406q-10 161 -15 406q-3 79 -5 238q-2 132 -7 238v33q0 18 12 30q5 5 8 7l9 6q103 31 214 34q102 3 218 1q53 -1 106 -6q55 -5 102 -19q104 -30 173 -106q67 -75 96 -170zM689 950
q25 45 21 89q-5 46 -37 77q-32 30 -93 43q-56 11 -145 -12q8 -114 12 -170t16 -170q87 19 145 59q55 37 81 84z" />
    <glyph glyph-name="Q" unicode="Q" horiz-adv-x="1304" 
d="M1197 51q12 -24 -8 -53q-8 -13 -36 -38q-29 -26 -63 -54q-43 -36 -66 -52q-32 -23 -43 -27q-30 -9 -59 6q-11 6 -40 36q-17 18 -60 67q-33 37 -59 71l-16 20t-15 18.5t-9 11.5q-63 -19 -111 -25q-57 -8 -114 0q-104 14 -174 56q-73 44 -119 108t-72 148q-24 79 -29 179
q-6 111 5 233q11 121 46 228q38 115 99 206q66 98 166 166q29 20 66 34q36 14 81 24q35 8 82 11q44 3 74 -2q109 -17 189 -63q78 -46 129 -113t78 -150q25 -76 33 -174q7 -101 -4 -184q-13 -97 -37 -182q-26 -93 -66 -185q-39 -89 -106 -164q22 -15 55 -33q60 -33 85 -48
q61 -36 79 -47q35 -22 39 -29zM788 697q12 55 12 110q0 57 -12 103q-13 50 -32 77q-23 31 -55 37q-34 6 -64 -3q-29 -9 -54 -32q-24 -23 -26 -54q-11 -11 -27 -52q-15 -38 -24 -91q-11 -61 -12 -108q-1 -54 11 -102q12 -46 40 -74t79 -24q43 4 77 35q31 28 54 76
q20 41 33 102z" />
    <glyph glyph-name="R" unicode="R" horiz-adv-x="1286" 
d="M1179 385q7 -9 0 -36q-7 -26 -24 -61q-19 -39 -39 -73q-17 -29 -46 -69q-21 -29 -43 -53q-20 -22 -31 -23q-13 -2 -29 4q-31 11 -37 14q-5 2 -12.5 5.5t-13.5 6t-11 5.5q-11 6 -29 15q-106 51 -196 116q-91 66 -173 151q0 -4 2 -12t5 -22t5 -27q8 -45 21 -100
q9 -41 19 -95q7 -39 7 -44q-7 -26 -41 -37q-21 -7 -56 -16q-10 -3 -47 -10q-25 -5 -67 -10q-32 -4 -67 -9q-27 -4 -44 -2q-33 4 -52 31q-20 28 -29 61q-10 38 -14 71q-6 52 -7 61q-14 119 -19 247q-4 109 -4 247q0 23 -2 107q-1 22 -1.5 67t-0.5 68q-2 84 2 145q5 78 16 141
q13 71 32 121q21 54 58 85q23 19 51 30q26 9 60 16q35 7 64 8q22 1 59 1q104 5 211 -12q109 -17 199 -59q95 -44 164 -118q71 -75 99 -187q9 -39 9 -77q0 -43 -7 -78q-26 -126 -95 -221q-71 -97 -182 -159q67 -43 122 -84q61 -45 126 -80q13 -8 47 -24q33 -16 41 -26z
M688 914q52 52 44 103q-7 51 -47 84q-40 34 -95 41q-56 7 -104 -23q-18 -13 -25 -55q-8 -49 -11 -93q-3 -57 -2 -99q1 -46 3 -68q21 10 60 23q42 14 63 22q34 13 62 27t52 38z" />
    <glyph glyph-name="S" unicode="S" horiz-adv-x="1064" 
d="M939 633q28 -64 22 -156q-6 -79 -35 -151q-30 -76 -79 -132q-72 -81 -167 -127q-97 -47 -200 -68q-7 -2 -25 -4.5t-27 -4.5q-25 -4 -67 -10q-35 -5 -65 -3q-31 2 -45 13q-14 9 -29 59q-17 56 -25 107q-9 57 -12 108t6 64q13 16 43 25q32 9 72 18q31 7 82 16q43 8 77 18
q33 10 54 26q20 16 16 40q-5 19 -31 36q-22 15 -64 34l-72 30q-34 14 -52 24q-109 64 -159 153q-51 90 -54 186t39 189q43 96 122 166q82 74 194 114q114 40 257 33q4 0 28 -2q19 -2 38 -6q31 -7 36 -9q15 -6 22 -14q2 -6 6 -29q2 -10 6 -61q5 -57 7 -78q3 -27 5 -77
q1 -24 1 -61q0 -26 -4 -30q-11 -11 -57 -14q-41 -3 -98 -11q-46 -7 -94 -25q-43 -16 -49 -59q-6 -36 24 -60q32 -26 76 -47q7 -3 44 -20.5t58 -28.5q54 -27 101 -68t74 -103z" />
    <glyph glyph-name="T" unicode="T" horiz-adv-x="1351" 
d="M1242 1309q6 -24 7 -39q1 -21 0 -42q-2 -28 -2 -35q-4 -39 -4 -41q-1 -15 -7 -52q-4 -23 -11 -50q-8 -24 -18 -34q-11 -11 -63 -13q-51 -1 -109 3q-73 6 -115 10q-43 5 -78 7q-3 -51 -6 -105q-4 -77 -9 -187q-7 -166 -10 -225q-6 -118 -12 -219q-1 -24 -3.5 -60.5t-4 -62
t-2.5 -45.5q-5 -67 -9 -72q-8 -10 -45 -15q-36 -4 -84 -3q-49 2 -104 6q-59 5 -103 13q-46 9 -82 18q-33 9 -40 19q-2 7 5 70q3 22 22 165q4 26 13.5 100t15.5 118t17 120.5t15 104.5q19 137 27 189q8 54 17 108q-66 -9 -136 -24q-66 -14 -136 -19q-47 -4 -61 44
q-5 21 -10 62q-6 46 -8 70q-4 48 -5 71q-2 46 -2 63q0 25 18 38q14 10 41 15q24 4 50 3q18 -1 44 -1q8 0 21 -0.5t38 -1t45 -0.5q122 -2 185 -5q39 -2 114.5 -4.5t106.5 -3.5q185 -7 216 -9q22 -1 167 -11q69 -5 76 -10q13 -9 18 -28z" />
    <glyph glyph-name="U" unicode="U" horiz-adv-x="1277" 
d="M1173 1181q5 -53 0 -134q-5 -82 -21 -182q-16 -101 -45 -208t-72 -207q-42 -100 -102 -182q-59 -81 -138 -133t-175 -59q-142 -9 -235 36q-97 47 -155 129q-60 85 -88 192q-29 110 -36 226q-7 114 2 233q9 118 27 210q16 82 39 155q20 62 35 76q26 21 43 24q18 3 49 3
q17 0 64 -7q34 -5 81 -19q34 -10 71 -33q32 -20 38 -48q4 -17 -6 -64q-6 -31 -25 -98q-14 -50 -30 -116q-13 -54 -20 -123q-6 -59 3 -113q9 -56 41 -92q26 -29 52 -33t52 8q28 13 48 33q21 21 37 45q39 61 67 158q28 100 44 183q22 117 27 155q9 66 17 74q11 11 32 13
q24 2 44 -2q38 -7 45 -9q25 -7 38 -8q1 0 11.5 -1.5t18.5 -2.5q11 -1 40 -5q6 -1 20 -2.5t20 -2.5q17 -3 25 -9q13 -8 17 -60z" />
    <glyph glyph-name="U" unicode="&#xdc;" horiz-adv-x="1277" 
d="M1173 1181q5 -53 0 -134q-5 -82 -21 -182q-16 -101 -45 -208t-72 -207q-42 -100 -102 -182q-59 -81 -138 -133t-175 -59q-142 -9 -235 36q-97 47 -155 129q-60 85 -88 192q-29 110 -36 226q-7 114 2 233q9 118 27 210q16 82 39 155q20 62 35 76q26 21 43 24q18 3 49 3
q17 0 64 -7q34 -5 81 -19q34 -10 71 -33q32 -20 38 -48q4 -17 -6 -64q-6 -31 -25 -98q-14 -50 -30 -116q-13 -54 -20 -123q-6 -59 3 -113q9 -56 41 -92q26 -29 52 -33t52 8q28 13 48 33q21 21 37 45q39 61 67 158q28 100 44 183q22 117 27 155q9 66 17 74q11 11 32 13
q24 2 44 -2q38 -7 45 -9q25 -7 38 -8q1 0 11.5 -1.5t18.5 -2.5q11 -1 40 -5q6 -1 20 -2.5t20 -2.5q17 -3 25 -9q13 -8 17 -60z" />
    <glyph glyph-name="U" unicode="&#xdb;" horiz-adv-x="1277" 
d="M1173 1181q5 -53 0 -134q-5 -82 -21 -182q-16 -101 -45 -208t-72 -207q-42 -100 -102 -182q-59 -81 -138 -133t-175 -59q-142 -9 -235 36q-97 47 -155 129q-60 85 -88 192q-29 110 -36 226q-7 114 2 233q9 118 27 210q16 82 39 155q20 62 35 76q26 21 43 24q18 3 49 3
q17 0 64 -7q34 -5 81 -19q34 -10 71 -33q32 -20 38 -48q4 -17 -6 -64q-6 -31 -25 -98q-14 -50 -30 -116q-13 -54 -20 -123q-6 -59 3 -113q9 -56 41 -92q26 -29 52 -33t52 8q28 13 48 33q21 21 37 45q39 61 67 158q28 100 44 183q22 117 27 155q9 66 17 74q11 11 32 13
q24 2 44 -2q38 -7 45 -9q25 -7 38 -8q1 0 11.5 -1.5t18.5 -2.5q11 -1 40 -5q6 -1 20 -2.5t20 -2.5q17 -3 25 -9q13 -8 17 -60z" />
    <glyph glyph-name="U" unicode="&#xd9;" horiz-adv-x="1277" 
d="M1173 1181q5 -53 0 -134q-5 -82 -21 -182q-16 -101 -45 -208t-72 -207q-42 -100 -102 -182q-59 -81 -138 -133t-175 -59q-142 -9 -235 36q-97 47 -155 129q-60 85 -88 192q-29 110 -36 226q-7 114 2 233q9 118 27 210q16 82 39 155q20 62 35 76q26 21 43 24q18 3 49 3
q17 0 64 -7q34 -5 81 -19q34 -10 71 -33q32 -20 38 -48q4 -17 -6 -64q-6 -31 -25 -98q-14 -50 -30 -116q-13 -54 -20 -123q-6 -59 3 -113q9 -56 41 -92q26 -29 52 -33t52 8q28 13 48 33q21 21 37 45q39 61 67 158q28 100 44 183q22 117 27 155q9 66 17 74q11 11 32 13
q24 2 44 -2q38 -7 45 -9q25 -7 38 -8q1 0 11.5 -1.5t18.5 -2.5q11 -1 40 -5q6 -1 20 -2.5t20 -2.5q17 -3 25 -9q13 -8 17 -60z" />
    <glyph glyph-name="V" unicode="V" horiz-adv-x="1214" 
d="M1112 1224q1 -7 -11 -53q-7 -27 -32 -109q-8 -27 -44 -139q-6 -19 -22 -69t-24 -76q-26 -82 -39 -124q-20 -65 -23 -76l-8.5 -34t-10.5 -44q-5 -19 -14 -57t-11 -46q-7 -30 -31 -114q-17 -60 -36 -110q-22 -58 -40 -91q-21 -39 -44 -56t-52 -23q-32 -7 -57 -8h-84
q-56 0 -113 6q-58 6 -107 18q-50 12 -67 38q-13 18 -28 84q-15 63 -30 158q-12 77 -28 207q-14 114 -24 229q-11 121 -18 228q-6 95 -10 201q-3 88 0 147q3 57 12 69q9 13 27 19q6 2 32 10q35 7 72 6t72 0q38 1 79 14q37 11 79 16q16 4 38 2q18 -1 35 -11q15 -9 20 -23
q3 -9 9 -29q7 -47 4 -133t-12 -186q-2 -25 -9 -96.5t-10 -112.5q-9 -108 -15 -204q-6 -100 -2 -173q5 -80 24 -113q5 0 12 10q2 3 9 22q3 8 7 24q3 12 3 19q5 24 13 105q2 21 8.5 79t9.5 94q4 46 22 203q12 110 27 199q14 88 35 156q20 66 42 79q15 9 44 9q24 0 46 -2
q59 -9 72 -12q41 -8 87 -26q43 -16 76 -42q34 -27 40 -59z" />
    <glyph glyph-name="W" unicode="W" horiz-adv-x="1681" 
d="M1574 616q5 -86 5 -190q0 -97 -5 -151q-6 -66 -17 -92q-20 -46 -73 -82q-50 -34 -115 -57q-57 -21 -128 -32q-64 -10 -112 -9q-21 1 -70 7q-32 4 -68 22q-44 26 -75 91q-32 67 -54 146q-21 75 -37 157q-19 96 -23 125q-18 -62 -54 -190q-28 -99 -72 -173
q-47 -78 -121 -123q-75 -45 -196 -33q-37 2 -67 7q-29 5 -60 19q-30 13 -51 33q-23 21 -36 57q-26 64 -35 158q-9 90 -7 205q1 103 11 231q8 108 23 232q15 126 28 211q21 136 26 167q0 2 6 44q3 24 18 40q16 18 49 27q29 8 76 13q39 4 89 1q51 -3 86 -11q41 -9 72 -24
q30 -14 43 -37q12 -22 8 -89q-5 -76 -16 -149q-19 -127 -23 -150q-9 -54 -19 -99q-6 -26 -23 -92q-15 -57 -30 -117q-16 -65 -26 -115q-11 -57 -7 -83l14 -5q19 9 38 44q16 29 38 84q10 26 38 102q7 20 20 55.5t18 48.5q14 38 35 90q15 37 32 59q23 27 55 24q42 -4 62 -5
q21 0 42 3q19 3 42 -7q18 -8 34 -43q23 -49 37 -87q20 -53 39 -112q15 -48 41 -118q19 -51 44 -103q23 -47 48 -68q4 38 -3 124q-4 58 -19 169q-7 53 -28 187q-18 114 -25 180q-9 83 -12 144q-3 62 10 82q12 21 32 33q18 11 41 21q43 15 67 22q42 12 86 18q41 6 84 1
q39 -4 59 -30q13 -15 28 -74q12 -47 26 -139q12 -83 24 -181q11 -91 19 -205q10 -140 14 -209z" />
    <glyph glyph-name="X" unicode="X" horiz-adv-x="1337" 
d="M1226 1128q17 -38 2 -72q-12 -28 -58 -75q-52 -54 -103 -102q-18 -17 -55 -52.5t-56 -53.5q-62 -59 -84 -84q49 -99 118 -187q78 -100 140 -170q11 -13 19 -28q8 -16 8 -32q0 -19 -1 -29q-1 -15 -10 -26q-14 -35 -39 -69q-27 -37 -57 -64q-32 -29 -70 -49
q-40 -20 -75 -26q-18 -4 -46 19q-26 21 -57 59q-33 40 -62 81q-39 55 -59 88q-8 13 -24.5 39.5t-24.5 38.5q-21 34 -33 51q-48 -55 -94 -125q-45 -69 -81 -133q-19 -33 -46 -40q-12 -5 -26 -6q-15 -1 -24 8q-43 12 -78 37q-36 26 -65 59q-20 22 -33 41q-19 27 -29 49
q-12 25 -18 53q-6 27 3 50q7 22 46 77q37 52 79 106q37 48 86 105q37 44 64 76q-23 40 -60 111q-31 59 -69 148q-31 74 -47 149q-15 72 8 116q22 39 56 66q36 28 70 48q22 11 27 13q10 4 32 12q19 7 32 8q17 2 28 -4q19 -9 45 -55q35 -63 58 -107q21 -40 57 -115
q27 -56 39 -78l72 72q44 44 102 94q46 40 107 78q52 33 89 31q27 -1 51 -15q23 -13 44 -34q17 -17 36 -43q16 -23 30 -42q18 -27 36 -67z" />
    <glyph glyph-name="Y" unicode="Y" horiz-adv-x="1474" 
d="M1348 1419q25 -25 25 -46q0 -17 -17 -54q-11 -24 -38 -78q-25 -50 -43 -80q-21 -36 -30 -58q-114 -247 -173 -499q-60 -254 -96 -521q-2 -8 -4.5 -22.5t-3.5 -18.5q-4 -21 -21 -35q-23 -17 -58 -14q-52 4 -62 6q-12 2 -65 8q-16 2 -47 4.5t-45 3.5q-19 2 -51 5.5t-37 4.5
q-39 4 -49 11q-12 6 -20 14q-11 11 -17 20q-10 17 -5 64q5 53 16 110q12 63 30 135q4 16 37 137q21 77 33 119q8 28 25 79q-92 -33 -160 -30q-67 3 -117 32q-49 28 -84 78q-32 46 -59 111q-25 60 -43 131q-4 14 -17 62t-19 74q-3 13 -9.5 38.5t-9.5 37.5q-10 40 -11 75
q-2 27 6 46q9 23 26 38q19 19 50 30q44 16 68 22q40 10 70 15q9 2 30.5 5t30.5 5q67 12 103 -7q34 -18 49 -54q16 -37 17 -86l3 -102q1 -48 11 -99q9 -47 42 -82q19 -21 40 -21q22 0 41 10q18 10 38 28q16 15 30 34q3 4 19 47q3 9 15 40.5t19 50.5q12 33 34 95q13 37 26 65
q10 22 32 64q16 31 46 53q25 19 66 22q37 3 88 -7q48 -9 95 -27q45 -17 87 -42q40 -24 63 -47z" />
    <glyph glyph-name="Y" unicode="&#x178;" horiz-adv-x="1474" 
d="M1348 1419q25 -25 25 -46q0 -17 -17 -54q-11 -24 -38 -78q-25 -50 -43 -80q-21 -36 -30 -58q-114 -247 -173 -499q-60 -254 -96 -521q-2 -8 -4.5 -22.5t-3.5 -18.5q-4 -21 -21 -35q-23 -17 -58 -14q-52 4 -62 6q-12 2 -65 8q-16 2 -47 4.5t-45 3.5q-19 2 -51 5.5t-37 4.5
q-39 4 -49 11q-12 6 -20 14q-11 11 -17 20q-10 17 -5 64q5 53 16 110q12 63 30 135q4 16 37 137q21 77 33 119q8 28 25 79q-92 -33 -160 -30q-67 3 -117 32q-49 28 -84 78q-32 46 -59 111q-25 60 -43 131q-4 14 -17 62t-19 74q-3 13 -9.5 38.5t-9.5 37.5q-10 40 -11 75
q-2 27 6 46q9 23 26 38q19 19 50 30q44 16 68 22q40 10 70 15q9 2 30.5 5t30.5 5q67 12 103 -7q34 -18 49 -54q16 -37 17 -86l3 -102q1 -48 11 -99q9 -47 42 -82q19 -21 40 -21q22 0 41 10q18 10 38 28q16 15 30 34q3 4 19 47q3 9 15 40.5t19 50.5q12 33 34 95q13 37 26 65
q10 22 32 64q16 31 46 53q25 19 66 22q37 3 88 -7q48 -9 95 -27q45 -17 87 -42q40 -24 63 -47z" />
    <glyph glyph-name="Y" unicode="&#xdd;" horiz-adv-x="1474" 
d="M1348 1419q25 -25 25 -46q0 -17 -17 -54q-11 -24 -38 -78q-25 -50 -43 -80q-21 -36 -30 -58q-114 -247 -173 -499q-60 -254 -96 -521q-2 -8 -4.5 -22.5t-3.5 -18.5q-4 -21 -21 -35q-23 -17 -58 -14q-52 4 -62 6q-12 2 -65 8q-16 2 -47 4.5t-45 3.5q-19 2 -51 5.5t-37 4.5
q-39 4 -49 11q-12 6 -20 14q-11 11 -17 20q-10 17 -5 64q5 53 16 110q12 63 30 135q4 16 37 137q21 77 33 119q8 28 25 79q-92 -33 -160 -30q-67 3 -117 32q-49 28 -84 78q-32 46 -59 111q-25 60 -43 131q-4 14 -17 62t-19 74q-3 13 -9.5 38.5t-9.5 37.5q-10 40 -11 75
q-2 27 6 46q9 23 26 38q19 19 50 30q44 16 68 22q40 10 70 15q9 2 30.5 5t30.5 5q67 12 103 -7q34 -18 49 -54q16 -37 17 -86l3 -102q1 -48 11 -99q9 -47 42 -82q19 -21 40 -21q22 0 41 10q18 10 38 28q16 15 30 34q3 4 19 47q3 9 15 40.5t19 50.5q12 33 34 95q13 37 26 65
q10 22 32 64q16 31 46 53q25 19 66 22q37 3 88 -7q48 -9 95 -27q45 -17 87 -42q40 -24 63 -47z" />
    <glyph glyph-name="Z" unicode="Z" horiz-adv-x="1163" 
d="M1059 1302h1q4 -12 0 -39q-6 -34 -8 -41q-21 -116 -19 -241q0 -17 -12 -34q-16 -22 -28 -33q-5 -5 -17 -14.5t-18 -14.5q-19 -17 -28 -24q-99 -84 -202 -183q-97 -92 -184 -201l50 -5q14 -1 44.5 -4t37.5 -4q62 -6 96 -10q51 -6 93 -12q38 -7 71 -15q29 -7 34 -15
q6 -12 3 -34q-3 -25 -9 -49q-8 -34 -13 -50q-9 -29 -10 -39q-3 -28 -4 -37q0 -8 -1.5 -26t-2.5 -27q-1 -26 -6 -49q-4 -22 -13 -29q-8 -7 -16 -8q-12 -2 -18 -2q-26 -2 -48 3q-7 2 -22.5 5t-23.5 4q-138 26 -281 43q-138 17 -284 12q-21 0 -32 1q-15 1 -29 9q-21 9 -36 32
q-13 19 -18 44q-4 17 -4 59q0 45 4 85q4 38 11 83q6 38 16 56t56 64q65 65 103 101q71 67 109 102q58 53 74 69q76 68 172 166q-99 11 -164 16q-90 6 -167 2q-9 0 -39 -7q-34 -8 -52 -11q-27 -4 -51 -3q-23 1 -31 17q-5 8 -7 49q-1 40 0 88q0 16 0.5 47t1.5 46q1 30 1 66
q0 7 2 23q1 11 11 21q13 11 34 14q18 3 35 3q91 1 179 -9q79 -9 180 -16q110 -8 208 -8q104 0 208 -9q8 -1 37 -7q20 -4 26 -20z" />
    <glyph glyph-name="underscore" unicode="_" horiz-adv-x="1331" 
d="M1225 -41q4 -39 4 -82q0 -30 -2 -68q-2 -29 -6 -38q-6 -16 -25 -30q-8 -5 -53 -10q-43 -4 -107 -6q-63 -1 -135 -3h-136h-318h-29h-35.5h-31.5q-48 1 -94 3q-35 1 -73 5q-31 3 -38 9q-8 6 -13 29q-6 24 -12 62q-5 27 -10 80q-3 28 -5 81q-2 42 -3 67q-1 24 1 38
q8 35 40 42q25 6 82 6q35 0 123 -2q48 -1 126 -5q60 -3 93 -3q25 0 76 3q94 5 114 7q10 1 131 6q42 2 127 4q53 1 102 -2q45 -3 57 -10q14 -8 23 -36q10 -33 17 -66q5 -29 10 -81z" />
    <glyph glyph-name="a" unicode="a" horiz-adv-x="1228" 
d="M1114 908q15 -99 13 -211q-2 -116 -10 -213q-8 -91 -27 -195q-16 -89 -36 -158q-6 -23 -20 -52q-8 -17 -30 -45q-12 -14 -35 -18q-20 -4 -51 -2q-18 1 -52 7q-36 6 -43 7q-95 13 -133 29q-35 15 -35 43q0 30 22 77q25 54 43 122q-63 5 -109 14q-54 11 -109 15
q0 -18 3 -58q2 -27 2 -86q0 -58 -2 -83q-3 -36 -15 -44q-21 -14 -77 -13q-62 2 -123 13q-72 13 -119 29q-53 18 -61 41l-4 12q-2 10 -2 11q-5 93 0 217q5 127 22 253q17 122 55 257q36 127 97 230t151 172t214 84q114 14 197 -18q82 -31 137 -94q56 -64 89 -152t48 -191z
M789 722q3 52 0 106q-3 53 -15 91t-39 53t-73 -10q-38 -21 -63 -66q-25 -44 -40 -98q-16 -59 -23 -107q-1 -8 -6 -43t-7 -51q58 4 126 -4q62 -7 124 -24q1 8 8 59q4 31 8 94z" />
    <glyph glyph-name="a" unicode="&#xe5;" horiz-adv-x="1228" 
d="M1114 908q15 -99 13 -211q-2 -116 -10 -213q-8 -91 -27 -195q-16 -89 -36 -158q-6 -23 -20 -52q-8 -17 -30 -45q-12 -14 -35 -18q-20 -4 -51 -2q-18 1 -52 7q-36 6 -43 7q-95 13 -133 29q-35 15 -35 43q0 30 22 77q25 54 43 122q-63 5 -109 14q-54 11 -109 15
q0 -18 3 -58q2 -27 2 -86q0 -58 -2 -83q-3 -36 -15 -44q-21 -14 -77 -13q-62 2 -123 13q-72 13 -119 29q-53 18 -61 41l-4 12q-2 10 -2 11q-5 93 0 217q5 127 22 253q17 122 55 257q36 127 97 230t151 172t214 84q114 14 197 -18q82 -31 137 -94q56 -64 89 -152t48 -191z
M789 722q3 52 0 106q-3 53 -15 91t-39 53t-73 -10q-38 -21 -63 -66q-25 -44 -40 -98q-16 -59 -23 -107q-1 -8 -6 -43t-7 -51q58 4 126 -4q62 -7 124 -24q1 8 8 59q4 31 8 94z" />
    <glyph glyph-name="a" unicode="&#xe4;" horiz-adv-x="1228" 
d="M1114 908q15 -99 13 -211q-2 -116 -10 -213q-8 -91 -27 -195q-16 -89 -36 -158q-6 -23 -20 -52q-8 -17 -30 -45q-12 -14 -35 -18q-20 -4 -51 -2q-18 1 -52 7q-36 6 -43 7q-95 13 -133 29q-35 15 -35 43q0 30 22 77q25 54 43 122q-63 5 -109 14q-54 11 -109 15
q0 -18 3 -58q2 -27 2 -86q0 -58 -2 -83q-3 -36 -15 -44q-21 -14 -77 -13q-62 2 -123 13q-72 13 -119 29q-53 18 -61 41l-4 12q-2 10 -2 11q-5 93 0 217q5 127 22 253q17 122 55 257q36 127 97 230t151 172t214 84q114 14 197 -18q82 -31 137 -94q56 -64 89 -152t48 -191z
M789 722q3 52 0 106q-3 53 -15 91t-39 53t-73 -10q-38 -21 -63 -66q-25 -44 -40 -98q-16 -59 -23 -107q-1 -8 -6 -43t-7 -51q58 4 126 -4q62 -7 124 -24q1 8 8 59q4 31 8 94z" />
    <glyph glyph-name="a" unicode="&#xe3;" horiz-adv-x="1228" 
d="M1114 908q15 -99 13 -211q-2 -116 -10 -213q-8 -91 -27 -195q-16 -89 -36 -158q-6 -23 -20 -52q-8 -17 -30 -45q-12 -14 -35 -18q-20 -4 -51 -2q-18 1 -52 7q-36 6 -43 7q-95 13 -133 29q-35 15 -35 43q0 30 22 77q25 54 43 122q-63 5 -109 14q-54 11 -109 15
q0 -18 3 -58q2 -27 2 -86q0 -58 -2 -83q-3 -36 -15 -44q-21 -14 -77 -13q-62 2 -123 13q-72 13 -119 29q-53 18 -61 41l-4 12q-2 10 -2 11q-5 93 0 217q5 127 22 253q17 122 55 257q36 127 97 230t151 172t214 84q114 14 197 -18q82 -31 137 -94q56 -64 89 -152t48 -191z
M789 722q3 52 0 106q-3 53 -15 91t-39 53t-73 -10q-38 -21 -63 -66q-25 -44 -40 -98q-16 -59 -23 -107q-1 -8 -6 -43t-7 -51q58 4 126 -4q62 -7 124 -24q1 8 8 59q4 31 8 94z" />
    <glyph glyph-name="a" unicode="&#xe2;" horiz-adv-x="1228" 
d="M1114 908q15 -99 13 -211q-2 -116 -10 -213q-8 -91 -27 -195q-16 -89 -36 -158q-6 -23 -20 -52q-8 -17 -30 -45q-12 -14 -35 -18q-20 -4 -51 -2q-18 1 -52 7q-36 6 -43 7q-95 13 -133 29q-35 15 -35 43q0 30 22 77q25 54 43 122q-63 5 -109 14q-54 11 -109 15
q0 -18 3 -58q2 -27 2 -86q0 -58 -2 -83q-3 -36 -15 -44q-21 -14 -77 -13q-62 2 -123 13q-72 13 -119 29q-53 18 -61 41l-4 12q-2 10 -2 11q-5 93 0 217q5 127 22 253q17 122 55 257q36 127 97 230t151 172t214 84q114 14 197 -18q82 -31 137 -94q56 -64 89 -152t48 -191z
M789 722q3 52 0 106q-3 53 -15 91t-39 53t-73 -10q-38 -21 -63 -66q-25 -44 -40 -98q-16 -59 -23 -107q-1 -8 -6 -43t-7 -51q58 4 126 -4q62 -7 124 -24q1 8 8 59q4 31 8 94z" />
    <glyph glyph-name="a" unicode="&#xe0;" horiz-adv-x="1228" 
d="M1114 908q15 -99 13 -211q-2 -116 -10 -213q-8 -91 -27 -195q-16 -89 -36 -158q-6 -23 -20 -52q-8 -17 -30 -45q-12 -14 -35 -18q-20 -4 -51 -2q-18 1 -52 7q-36 6 -43 7q-95 13 -133 29q-35 15 -35 43q0 30 22 77q25 54 43 122q-63 5 -109 14q-54 11 -109 15
q0 -18 3 -58q2 -27 2 -86q0 -58 -2 -83q-3 -36 -15 -44q-21 -14 -77 -13q-62 2 -123 13q-72 13 -119 29q-53 18 -61 41l-4 12q-2 10 -2 11q-5 93 0 217q5 127 22 253q17 122 55 257q36 127 97 230t151 172t214 84q114 14 197 -18q82 -31 137 -94q56 -64 89 -152t48 -191z
M789 722q3 52 0 106q-3 53 -15 91t-39 53t-73 -10q-38 -21 -63 -66q-25 -44 -40 -98q-16 -59 -23 -107q-1 -8 -6 -43t-7 -51q58 4 126 -4q62 -7 124 -24q1 8 8 59q4 31 8 94z" />
    <glyph glyph-name="b" unicode="b" horiz-adv-x="1224" 
d="M1115 1021q11 -67 5 -143q-6 -70 -34 -137q-26 -62 -77 -104q-27 -23 -66 -41q-24 -11 -70 -31q62 -40 101 -94q39 -56 52 -111q13 -53 3 -114q-9 -58 -42 -106q-35 -51 -85 -85q-53 -37 -125 -50q-29 -6 -73 -5q-69 2 -100 4q-53 3 -101 9q-11 1 -38 4t-37 5
q-28 6 -67 11q-31 4 -95 16q-48 9 -90 21q-43 12 -56 27q-16 15 -17 62q-2 47 3 110q4 63 15 135q14 96 22 141q5 26 12 70t8 52q3 20 7.5 47t5.5 34q1 22 3 74q1 18 5 114q3 72 6 133q4 87 8 129q5 52 14 103q8 44 19 57q16 18 30 26q26 15 76 21q46 5 108 7q57 2 111 -3
q67 -6 84 -9q66 -12 128 -30q63 -18 120 -48q63 -33 106 -72q49 -44 81 -104q28 -52 40 -125zM673 397q6 30 -35 62q-42 33 -142 45q-6 -42 -12 -63q-9 -30 -9 -63q86 -33 139 -21t59 40zM769 878q9 23 -3 46q-13 24 -36 43t-52 34q-27 14 -56 19t-43 -1q-16 -6 -19 -26
q0 -3 -4 -35q-8 -51 -11 -71q-2 -12 -4.5 -36t-3.5 -36l11 -4q41 -12 89 -3q51 10 85 28q38 20 47 42z" />
    <glyph glyph-name="c" unicode="c" horiz-adv-x="1208" 
d="M1093 309q13 -46 13 -69q0 -28 -30 -55q-26 -24 -72 -49q-35 -19 -84 -38q-39 -15 -66 -22q-98 -27 -197 -27t-196 27q-143 41 -226 139q-85 100 -115 225q-30 124 -9 262q21 137 87 254q65 116 175 197t256 96q17 0 30 1t39 1q27 0 38 -1q18 -2 26 -7q10 -8 16 -19
q9 -16 14 -30t10 -32q6 -22 8 -26q7 -17 12 -36q5 -17 15 -53q2 -9 13 -51q6 -23 4 -34q-4 -22 -28 -34q-22 -11 -58 -22q-34 -10 -75 -24q-44 -15 -77 -38q-34 -24 -62 -66q-26 -40 -34 -108q-6 -45 4 -86q10 -40 34 -77q22 -34 59 -57q38 -24 82 -25q47 -4 89 11
q51 19 75 33q33 19 57 36t37 18q29 2 56 -35q26 -35 46 -84q24 -58 34 -95z" />
    <glyph glyph-name="c" unicode="&#xe7;" horiz-adv-x="1208" 
d="M1093 309q13 -46 13 -69q0 -28 -30 -55q-26 -24 -72 -49q-35 -19 -84 -38q-39 -15 -66 -22q-98 -27 -197 -27t-196 27q-143 41 -226 139q-85 100 -115 225q-30 124 -9 262q21 137 87 254q65 116 175 197t256 96q17 0 30 1t39 1q27 0 38 -1q18 -2 26 -7q10 -8 16 -19
q9 -16 14 -30t10 -32q6 -22 8 -26q7 -17 12 -36q5 -17 15 -53q2 -9 13 -51q6 -23 4 -34q-4 -22 -28 -34q-22 -11 -58 -22q-34 -10 -75 -24q-44 -15 -77 -38q-34 -24 -62 -66q-26 -40 -34 -108q-6 -45 4 -86q10 -40 34 -77q22 -34 59 -57q38 -24 82 -25q47 -4 89 11
q51 19 75 33q33 19 57 36t37 18q29 2 56 -35q26 -35 46 -84q24 -58 34 -95z" />
    <glyph glyph-name="d" unicode="d" horiz-adv-x="1255" 
d="M1151 848q10 -129 -18 -265q-27 -132 -90 -247t-161 -195q-51 -42 -119 -69q-61 -24 -141 -41q-64 -13 -147 -20q-84 -7 -137 -8q-33 -1 -73 6q-41 8 -67 28q-3 1 -5 9q-1 2 -2.5 6t-1.5 5q-34 119 -54 251q-18 120 -26 263q-7 133 -6 266q2 147 7 259q0 16 3 57
q4 54 7 83q4 41 9 79q5 36 12 48q15 25 58 40q46 16 100 23q66 9 121 10q65 2 125 0q55 -1 110 -8q58 -7 76 -11q129 -33 220 -119q89 -84 139 -200q51 -117 61 -250zM810 798q4 52 -19 105q-13 27 -35 54q-21 26 -50 41q-21 10 -38 15q-22 6 -47 9q-21 3 -47 1
q-25 -2 -38 -9q-17 -9 -26 -43q-10 -36 -14 -80q-4 -46 -3 -98q1 -53 6 -99q4 -44 14 -83q9 -37 18 -50q22 -31 55 -31q35 0 71 21q32 19 70 60q34 37 57 86q21 46 26 101z" />
    <glyph glyph-name="e" unicode="e" horiz-adv-x="1110" 
d="M1006 349q2 -48 2 -77q0 -45 -4 -76q-7 -56 -8 -60q-4 -25 -13 -30q-10 -6 -45 -11q-33 -4 -80 -6q-62 -2 -100 -2q-70 0 -103 -1t-91 -1q-34 0 -60 -2q-66 -6 -97 -10q-28 -4 -94 -16q-3 -1 -12 -2.5t-14 -2.5q-21 -4 -35 -5q-24 -2 -33 -2q-16 0 -23 4q-10 9 -16 24
q-7 19 -7 28q0 303 -14 569q-15 290 -55 565q-2 12 -2 22q0 13 6 22q15 23 78 39q57 15 144 28q78 12 150 18q23 2 56.5 5t43.5 4q6 0 76 8q37 4 115 8q60 3 108 -3q49 -6 56 -25q3 -6 5 -24q1 -11 1 -36q0 -24 -1 -36t-1 -28q0 -4 2 -32q0 -7 1.5 -21t2.5 -22q1 -15 3 -41
q1 -16 -1 -25q-7 -16 -37 -25q-35 -10 -77 -17q-58 -10 -97 -13q-67 -6 -101 -10q-53 -7 -85 -13q-35 -7 -50 -20q-8 -7 -11 -22t-1 -37q1 -13 5 -37q3 -20 7 -26l13 -7q34 0 82 14q51 15 105 24q58 10 98 4q44 -6 59 -46q14 -35 12 -71t0 -73q0 -14 1 -24q0 -4 0.5 -9.5
t1.5 -12.5t1 -11q2 -17 0 -32q-2 -18 -4 -21q-9 -15 -55 -24q-37 -7 -99 -16q-74 -10 -105 -13q-53 -5 -70 -10q0 -32 3 -67q6 -63 6 -67q76 5 145 22q72 18 144 24q13 1 35 3q13 1 41 1q18 0 40 -5q16 -4 31 -15q10 -8 14 -33q6 -33 7 -62z" />
    <glyph glyph-name="e" unicode="&#xeb;" horiz-adv-x="1110" 
d="M1006 349q2 -48 2 -77q0 -45 -4 -76q-7 -56 -8 -60q-4 -25 -13 -30q-10 -6 -45 -11q-33 -4 -80 -6q-62 -2 -100 -2q-70 0 -103 -1t-91 -1q-34 0 -60 -2q-66 -6 -97 -10q-28 -4 -94 -16q-3 -1 -12 -2.5t-14 -2.5q-21 -4 -35 -5q-24 -2 -33 -2q-16 0 -23 4q-10 9 -16 24
q-7 19 -7 28q0 303 -14 569q-15 290 -55 565q-2 12 -2 22q0 13 6 22q15 23 78 39q57 15 144 28q78 12 150 18q23 2 56.5 5t43.5 4q6 0 76 8q37 4 115 8q60 3 108 -3q49 -6 56 -25q3 -6 5 -24q1 -11 1 -36q0 -24 -1 -36t-1 -28q0 -4 2 -32q0 -7 1.5 -21t2.5 -22q1 -15 3 -41
q1 -16 -1 -25q-7 -16 -37 -25q-35 -10 -77 -17q-58 -10 -97 -13q-67 -6 -101 -10q-53 -7 -85 -13q-35 -7 -50 -20q-8 -7 -11 -22t-1 -37q1 -13 5 -37q3 -20 7 -26l13 -7q34 0 82 14q51 15 105 24q58 10 98 4q44 -6 59 -46q14 -35 12 -71t0 -73q0 -14 1 -24q0 -4 0.5 -9.5
t1.5 -12.5t1 -11q2 -17 0 -32q-2 -18 -4 -21q-9 -15 -55 -24q-37 -7 -99 -16q-74 -10 -105 -13q-53 -5 -70 -10q0 -32 3 -67q6 -63 6 -67q76 5 145 22q72 18 144 24q13 1 35 3q13 1 41 1q18 0 40 -5q16 -4 31 -15q10 -8 14 -33q6 -33 7 -62z" />
    <glyph glyph-name="e" unicode="&#xea;" horiz-adv-x="1110" 
d="M1006 349q2 -48 2 -77q0 -45 -4 -76q-7 -56 -8 -60q-4 -25 -13 -30q-10 -6 -45 -11q-33 -4 -80 -6q-62 -2 -100 -2q-70 0 -103 -1t-91 -1q-34 0 -60 -2q-66 -6 -97 -10q-28 -4 -94 -16q-3 -1 -12 -2.5t-14 -2.5q-21 -4 -35 -5q-24 -2 -33 -2q-16 0 -23 4q-10 9 -16 24
q-7 19 -7 28q0 303 -14 569q-15 290 -55 565q-2 12 -2 22q0 13 6 22q15 23 78 39q57 15 144 28q78 12 150 18q23 2 56.5 5t43.5 4q6 0 76 8q37 4 115 8q60 3 108 -3q49 -6 56 -25q3 -6 5 -24q1 -11 1 -36q0 -24 -1 -36t-1 -28q0 -4 2 -32q0 -7 1.5 -21t2.5 -22q1 -15 3 -41
q1 -16 -1 -25q-7 -16 -37 -25q-35 -10 -77 -17q-58 -10 -97 -13q-67 -6 -101 -10q-53 -7 -85 -13q-35 -7 -50 -20q-8 -7 -11 -22t-1 -37q1 -13 5 -37q3 -20 7 -26l13 -7q34 0 82 14q51 15 105 24q58 10 98 4q44 -6 59 -46q14 -35 12 -71t0 -73q0 -14 1 -24q0 -4 0.5 -9.5
t1.5 -12.5t1 -11q2 -17 0 -32q-2 -18 -4 -21q-9 -15 -55 -24q-37 -7 -99 -16q-74 -10 -105 -13q-53 -5 -70 -10q0 -32 3 -67q6 -63 6 -67q76 5 145 22q72 18 144 24q13 1 35 3q13 1 41 1q18 0 40 -5q16 -4 31 -15q10 -8 14 -33q6 -33 7 -62z" />
    <glyph glyph-name="e" unicode="&#xe8;" horiz-adv-x="1110" 
d="M1006 349q2 -48 2 -77q0 -45 -4 -76q-7 -56 -8 -60q-4 -25 -13 -30q-10 -6 -45 -11q-33 -4 -80 -6q-62 -2 -100 -2q-70 0 -103 -1t-91 -1q-34 0 -60 -2q-66 -6 -97 -10q-28 -4 -94 -16q-3 -1 -12 -2.5t-14 -2.5q-21 -4 -35 -5q-24 -2 -33 -2q-16 0 -23 4q-10 9 -16 24
q-7 19 -7 28q0 303 -14 569q-15 290 -55 565q-2 12 -2 22q0 13 6 22q15 23 78 39q57 15 144 28q78 12 150 18q23 2 56.5 5t43.5 4q6 0 76 8q37 4 115 8q60 3 108 -3q49 -6 56 -25q3 -6 5 -24q1 -11 1 -36q0 -24 -1 -36t-1 -28q0 -4 2 -32q0 -7 1.5 -21t2.5 -22q1 -15 3 -41
q1 -16 -1 -25q-7 -16 -37 -25q-35 -10 -77 -17q-58 -10 -97 -13q-67 -6 -101 -10q-53 -7 -85 -13q-35 -7 -50 -20q-8 -7 -11 -22t-1 -37q1 -13 5 -37q3 -20 7 -26l13 -7q34 0 82 14q51 15 105 24q58 10 98 4q44 -6 59 -46q14 -35 12 -71t0 -73q0 -14 1 -24q0 -4 0.5 -9.5
t1.5 -12.5t1 -11q2 -17 0 -32q-2 -18 -4 -21q-9 -15 -55 -24q-37 -7 -99 -16q-74 -10 -105 -13q-53 -5 -70 -10q0 -32 3 -67q6 -63 6 -67q76 5 145 22q72 18 144 24q13 1 35 3q13 1 41 1q18 0 40 -5q16 -4 31 -15q10 -8 14 -33q6 -33 7 -62z" />
    <glyph glyph-name="f" unicode="f" horiz-adv-x="1159" 
d="M1031 1377q24 -30 25 -67q1 -39 -6 -73q-2 -7 -8 -37q-2 -13 -13 -49q-8 -28 -16 -46q-10 -22 -16 -30q-20 -25 -65 -23q-41 1 -95 11q-8 1 -44.5 8t-55.5 10q-49 7 -84 -6q-19 -29 -25 -64q0 -3 -9 -68q-1 -4 -2.5 -14.5l-2.5 -17.5q-3 -22 3 -31q7 -11 48 -19
q46 -9 91 -14q62 -8 96 -13q46 -8 63 -21q22 -16 28 -57q5 -36 -1 -86q-5 -41 -22 -86q-15 -40 -36 -54q-29 -21 -66 -20q-41 2 -76 7q-17 3 -76 10q-34 4 -63 -10q-30 -14 -44 -53q-14 -41 -20 -91q-5 -47 -7 -112q-2 -60 -6 -112q-4 -50 -17 -93t-38 -59q-25 -15 -84 -18
t-122 9q-69 13 -112 36q-49 26 -50 65q-2 30 5 53q10 34 14 52q24 108 40 231q18 139 25 233q4 54 8 168q3 87 9 178q7 104 17 177q11 82 35 161q10 31 25 56q17 27 43 42q27 15 59 21q26 5 62 5q57 -1 122 -14q85 -17 122 -22q21 -3 80 -5q11 0 32 -0.5t38 -1t33 -1.5
q45 -3 97 -13q45 -9 62 -32z" />
    <glyph glyph-name="g" unicode="g" horiz-adv-x="1267" 
d="M1156 674q10 -75 10 -139q0 -66 -13 -142q-12 -71 -36 -138q-23 -65 -62 -124q-28 -43 -71 -72q-45 -31 -88 -50q-111 -49 -223 -36q-133 17 -231 66q-97 49 -165 128q-66 76 -106 184q-40 107 -56 231q-14 104 -13 196q1 96 32 194q20 66 62 136q40 67 95 128
q57 64 116 107q65 48 130 74q82 33 175 21t163 -67q88 -70 123 -154q37 -90 59 -186q2 -8 5.5 -23t5.5 -21q6 -24 2 -46t-22 -34q-16 -11 -43 -17q-23 -5 -50 -7q-31 -2 -43 -5q-35 -7 -75 -17q-39 -10 -75 -4q-38 6 -53 34q-9 17 -11 38q-1 7 -2.5 20t-1.5 19q-1 13 -9 37
q-6 19 -26 34q-21 17 -44 15q-21 -1 -43 -15q-20 -13 -36 -31q-19 -22 -26 -38q-26 -50 -31 -138t10 -173q14 -84 53 -158q37 -71 96 -97q12 -6 41 -11q20 -4 48 -2q23 1 45 11q21 9 33 29q9 16 11 31t6 30q-33 -5 -76 -6q-44 -2 -73 10q-26 9 -38 44q-12 33 -10 74t15 77
q14 37 38 48q8 5 32 7q30 2 48 2q33 0 48 -1t37 -1q18 0 55 4q15 2 45 4.5t43 3.5q18 2 46.5 3.5t36.5 2.5q37 3 39 3q15 -5 23 -14q11 -13 15 -24q4 -13 6 -29q1 -6 2.5 -14.5t1.5 -11.5z" />
    <glyph glyph-name="h" unicode="h" horiz-adv-x="1372" 
d="M1268 -17q5 -20 1 -28q-4 -11 -19 -29t-25 -22q-6 -4 -50 -6q-39 -1 -97 -3q-52 -1 -96 0q-45 2 -50 5q-10 7 -16 41q-6 37 -12 88q-7 64 -11 113q-6 85 -8 116q-1 11 -2.5 46.5t-2.5 52.5q-2 25 -5 61q-62 -12 -121 -18q-86 -9 -122 -13q2 -34 6.5 -98t6.5 -95
q5 -84 22 -193q4 -19 4 -46q0 -24 -21 -36q-4 -1 -30 -6q-10 -2 -33 -4t-32 -3q-14 -2 -42.5 -4.5t-40.5 -3.5t-40.5 -3.5t-42.5 -4.5q-24 -3 -69 -5q-29 -1 -35 0q-29 6 -44 30q-3 10 -10 59q-9 67 -17 145q-3 32 -10.5 99t-11.5 101q-10 92 -24 229q-3 32 -11 111t-12 120
q-11 105 -21 203q-9 92 -15 150t-6 69q-2 24 1 44q3 23 30 30q26 7 82 17q57 10 124 18q64 8 120 6q57 -2 71 -14q9 -10 17 -47q9 -45 14 -89q2 -13 9 -113q1 -19 3.5 -58t4.5 -59q2 -22 7 -101q1 -16 2.5 -38t1.5 -28q76 10 108 13q19 2 55 4.5t53 3.5q0 28 -4 65
q-1 11 -4 42.5t-5 50.5q-8 68 -12 104q-4 33 -8 100q-3 51 -2 82q2 38 8 51q7 13 60 25q47 11 115 19q39 5 123 11q52 4 83 4q51 0 74 -44q10 -22 10 -38v-40q0 -133 -5 -301q-4 -151 -6 -304q-1 -126 4 -303q5 -153 24 -301q1 -4 7 -30z" />
    <glyph glyph-name="i" unicode="i" horiz-adv-x="868" 
d="M756 1216q17 -70 3 -133q-15 -68 -65 -124q-51 -57 -142 -85q3 0 13 -2q7 -2 11 -5q9 -8 11 -39q1 -26 -2 -73q-3 -43 -9 -93q-4 -33 -12 -95q-2 -15 -5.5 -42.5t-5.5 -39.5q-1 -12 -4 -29.5t-3 -22.5q-3 -28 -4 -51q-2 -38 -3 -84q-2 -52 -3 -97q-1 -48 -3 -94
q-1 -42 -3 -70q-1 -18 -1 -30q-4 -13 -17 -19q-15 -7 -25 -8q-51 -8 -100 -5q-69 4 -99 5q-15 0 -40 3q-17 2 -51 8q-28 5 -48 13q-22 9 -31 24q-8 15 -13 82q-4 60 -1 156q3 92 9 193q5 93 17 192q10 81 23 154q12 66 26 81q9 11 38 13q32 2 62 -1q25 -2 65 -8q32 -4 45 -6
q-68 22 -112 66t-66 95q-22 50 -20 109q1 56 27 107t74 89q50 39 118 55q93 21 164 -1q73 -23 118 -71q48 -51 64 -117z" />
    <glyph glyph-name="i" unicode="&#xef;" horiz-adv-x="868" 
d="M756 1216q17 -70 3 -133q-15 -68 -65 -124q-51 -57 -142 -85q3 0 13 -2q7 -2 11 -5q9 -8 11 -39q1 -26 -2 -73q-3 -43 -9 -93q-4 -33 -12 -95q-2 -15 -5.5 -42.5t-5.5 -39.5q-1 -12 -4 -29.5t-3 -22.5q-3 -28 -4 -51q-2 -38 -3 -84q-2 -52 -3 -97q-1 -48 -3 -94
q-1 -42 -3 -70q-1 -18 -1 -30q-4 -13 -17 -19q-15 -7 -25 -8q-51 -8 -100 -5q-69 4 -99 5q-15 0 -40 3q-17 2 -51 8q-28 5 -48 13q-22 9 -31 24q-8 15 -13 82q-4 60 -1 156q3 92 9 193q5 93 17 192q10 81 23 154q12 66 26 81q9 11 38 13q32 2 62 -1q25 -2 65 -8q32 -4 45 -6
q-68 22 -112 66t-66 95q-22 50 -20 109q1 56 27 107t74 89q50 39 118 55q93 21 164 -1q73 -23 118 -71q48 -51 64 -117z" />
    <glyph glyph-name="i" unicode="&#xee;" horiz-adv-x="868" 
d="M756 1216q17 -70 3 -133q-15 -68 -65 -124q-51 -57 -142 -85q3 0 13 -2q7 -2 11 -5q9 -8 11 -39q1 -26 -2 -73q-3 -43 -9 -93q-4 -33 -12 -95q-2 -15 -5.5 -42.5t-5.5 -39.5q-1 -12 -4 -29.5t-3 -22.5q-3 -28 -4 -51q-2 -38 -3 -84q-2 -52 -3 -97q-1 -48 -3 -94
q-1 -42 -3 -70q-1 -18 -1 -30q-4 -13 -17 -19q-15 -7 -25 -8q-51 -8 -100 -5q-69 4 -99 5q-15 0 -40 3q-17 2 -51 8q-28 5 -48 13q-22 9 -31 24q-8 15 -13 82q-4 60 -1 156q3 92 9 193q5 93 17 192q10 81 23 154q12 66 26 81q9 11 38 13q32 2 62 -1q25 -2 65 -8q32 -4 45 -6
q-68 22 -112 66t-66 95q-22 50 -20 109q1 56 27 107t74 89q50 39 118 55q93 21 164 -1q73 -23 118 -71q48 -51 64 -117z" />
    <glyph glyph-name="i" unicode="&#xec;" horiz-adv-x="868" 
d="M756 1216q17 -70 3 -133q-15 -68 -65 -124q-51 -57 -142 -85q3 0 13 -2q7 -2 11 -5q9 -8 11 -39q1 -26 -2 -73q-3 -43 -9 -93q-4 -33 -12 -95q-2 -15 -5.5 -42.5t-5.5 -39.5q-1 -12 -4 -29.5t-3 -22.5q-3 -28 -4 -51q-2 -38 -3 -84q-2 -52 -3 -97q-1 -48 -3 -94
q-1 -42 -3 -70q-1 -18 -1 -30q-4 -13 -17 -19q-15 -7 -25 -8q-51 -8 -100 -5q-69 4 -99 5q-15 0 -40 3q-17 2 -51 8q-28 5 -48 13q-22 9 -31 24q-8 15 -13 82q-4 60 -1 156q3 92 9 193q5 93 17 192q10 81 23 154q12 66 26 81q9 11 38 13q32 2 62 -1q25 -2 65 -8q32 -4 45 -6
q-68 22 -112 66t-66 95q-22 50 -20 109q1 56 27 107t74 89q50 39 118 55q93 21 164 -1q73 -23 118 -71q48 -51 64 -117z" />
    <glyph glyph-name="j" unicode="j" horiz-adv-x="1193" 
d="M1088 571q9 -115 -2 -222q-9 -90 -60 -182q-49 -88 -130 -139q-36 -23 -74 -36q-41 -14 -82 -21q-43 -8 -85 -12q-13 -1 -40.5 -3.5t-42.5 -4.5q-114 -9 -217 35q-101 43 -168 122q-66 78 -81 184q-15 105 43 215q33 62 78 92q46 31 92 38q49 8 89 -6q44 -15 73 -44
q30 -30 39 -72q9 -44 -11 -92q-12 -29 -36 -48q-20 -16 -45 -43q14 -19 33 -27q25 -12 54 -9t56 17q29 15 46 35q19 22 25 49q14 56 15 111q1 53 -5 112q0 7 -9 69q-2 14 -16 96q-4 21 -20 110q-13 71 -22 109q-10 41 -21 94q-8 39 -17 65q-5 13 -15 44l-9 27t-10 32
q-5 17 -14 57q-6 27 0 40q9 21 31 32q18 9 42 14q19 4 80 16q49 9 116 21q60 10 111 15q50 4 69 -4q18 -8 27 -31q1 -1 7 -45q1 -8 6.5 -45t8.5 -63q3 -23 9.5 -71t9.5 -73q3 -19 10 -70t10 -77q4 -28 17 -122q2 -14 4.5 -30t4 -25t1.5 -13q17 -129 25 -221z" />
    <glyph glyph-name="k" unicode="k" horiz-adv-x="1323" 
d="M979 832q-64 -49 -108 -79q-40 -27 -87 -56q21 -26 52 -55q53 -49 79 -71q17 -15 50 -42t41 -34q10 -8 40.5 -33.5t45.5 -38.5q54 -46 66 -57q27 -26 31 -32q15 -34 -5 -89q-18 -50 -57 -107q-36 -52 -81 -90q-44 -37 -79 -37q-34 0 -74 24q-44 26 -83 61q-44 40 -83 84
q-45 52 -77 93q-31 41 -66 89q-33 47 -47 69q0 -37 3 -77t6 -84q2 -29 4 -83q1 -38 -5 -75q-6 -38 -43 -54q-38 -17 -85 -21q-48 -5 -96 0q-50 5 -74 10q-3 1 -10 2.5t-11 2.5q-18 4 -28 7q-4 1 -13.5 3t-13.5 4q-15 6 -18 8q-18 12 -30 69q-13 59 -17 132q-5 78 -3 167
q3 164 3 170q3 87 6 148q1 19 2 37.5t2 34t1 21.5t9 127q5 74 17 172q12 99 26 165q16 75 38 109q23 35 86 47q66 13 131 4q69 -9 123 -37q55 -28 63 -77q3 -16 -3 -76q-3 -29 -16 -119q-7 -52 -20 -122q-12 -66 -13 -90l56 56q36 35 79 82q29 31 91 93q61 61 89 88
q45 44 75 68q34 28 50 32q27 7 58 -5q27 -11 57 -34q31 -24 50 -47q18 -22 35 -48q30 -48 21 -100q-9 -51 -44 -106q-34 -53 -87 -106q-58 -58 -109 -97z" />
    <glyph glyph-name="l" unicode="l" horiz-adv-x="1073" 
d="M967 359q4 -36 4 -87q0 -50 -4 -85q-5 -43 -13 -67q-9 -27 -23 -33q-6 -3 -49 -5q-41 -2 -100 0q-20 1 -63.5 1.5t-65.5 0.5q-23 0 -67.5 0.5t-66.5 1.5q-43 1 -119 1q-44 0 -78 -2q-15 -1 -39 -6q-2 0 -50 -6q-26 -3 -49 0q-24 3 -32 14q-9 10 -10 31q-1 20 0 45
q1 17 5 47q3 22 3 36q10 147 6 265q-1 44 -3.5 132.5t-4.5 133.5q-4 54 -2 130q2 69 -4 129q-2 26 -9 74q-14 87 -15 99q-6 54 -12 95q-6 45 -2 61q6 37 59 56q56 20 120 26t128 -2t85 -26q13 -12 23 -33q8 -18 13 -40q9 -57 12 -117t3 -121v-120q0 -67 4 -118q2 -35 7 -103
t8 -103q8 -104 12 -208q23 1 81 11q85 14 112 17q57 6 107 6t65 -19q6 -7 14 -40q5 -22 10 -72z" />
    <glyph glyph-name="m" unicode="m" horiz-adv-x="1619" 
d="M1515 113q3 -18 2 -30q-2 -16 -8 -22q-5 -2 -31 -6q-10 -2 -67 -8q-14 -2 -43.5 -4t-43.5 -3q-29 -3 -90 -7q-68 -5 -75 -5q-8 0 -18.5 -0.5t-16 -1t-9.5 -0.5q-15 0 -24 9q-8 8 -13 21q-6 16 -7 27q-1 6 -2.5 14t-1.5 11q-11 79 -16 175q-6 118 -7 178q0 30 -2 89t-2 88
q-1 86 -9 175q-32 -104 -52 -218q-6 -34 -18.5 -108t-19.5 -113q-5 -25 -7 -59q-1 -27 -10 -58q-4 -19 -27 -28q-29 -11 -51 -15q-17 -3 -58 -7q-8 -1 -24 -2.5t-22 -2.5q-17 -5 -46 -9t-45 5q-10 6 -24 38q-18 39 -32 78q-25 67 -34 97q-5 17 -16.5 51t-16.5 50
q-6 19 -16 51t-11 37q-15 49 -18 57q13 -166 36 -298q22 -125 46 -297q1 -9 -5 -15q-5 -5 -16 -7q-32 -7 -59 -11q-35 -5 -72 -9q-25 -3 -73 -5l-35 -2.5t-27 -1.5q-17 -2 -34 0q-18 2 -25 21q-7 20 -19 108q-10 68 -25 202q-16 135 -26 251q-4 41 -11.5 125t-11.5 126
q-13 146 -17 205q-7 101 -7 114q0 18 1 26q2 15 5 23q7 19 38 36q32 18 80 33t100 27q46 10 102 19q51 8 86 8q37 0 51 -8q23 -15 32 -48q25 -70 37 -134q16 -83 28 -139q10 -45 34 -133q15 -54 39 -132q45 137 80 299q33 152 84 297q14 41 34 57q23 18 48 22q27 4 58 3
q42 -2 66 -2q17 0 54 5q33 5 67 6q39 2 64 -2q30 -4 45 -21q11 -11 17 -63q4 -36 8 -113q2 -39 4 -119q1 -55 3 -77q16 -215 47 -435q29 -211 89 -429q3 -19 5 -25q3 -12 7 -31z" />
    <glyph glyph-name="n" unicode="n" 
d="M1195 222q1 -17 1 -53q0 -18 -2 -50q-2 -25 -6 -34q-9 -22 -40 -33q-32 -11 -67 -14q-24 -2 -73 -2q-38 0 -57 -4q-9 -1 -30 -6q-19 -4 -40 -6q-20 -2 -37 0q-18 2 -27 14q-4 4 -10 17q-5 11 -11 19q-67 112 -113 183q-56 87 -135 170q1 -5 8 -44q2 -10 5.5 -34t6.5 -38
q2 -12 7 -40t7 -44q9 -65 11 -82q5 -42 5 -67q0 -30 -4 -37q-23 2 -56 0q-48 -2 -70 -4q-48 -4 -70 -7q-38 -5 -56 -10q-11 -1 -29 -8q-28 -10 -36 -12q-17 -4 -35 -2q-15 1 -21 17q0 2 -0.5 4t-1 6t-0.5 7q-1 4 -1.5 12.5t-0.5 13.5q-1 10 -1 27v20q-2 41 -4.5 123
t-3.5 122q-5 135 -13 245q-8 111 -28 243q-18 117 -53 239q-1 4 -4 15t-5 18q-6 18 2 34q5 12 33 22q29 10 71 21q38 10 90 18q30 5 91 11q43 4 76 3q34 -2 42 -8q8 -7 17 -27q8 -19 18 -47q3 -9 16 -50q6 -18 12 -35q21 -64 50 -127q33 -70 61 -122q7 -13 20.5 -38
t24.5 -45t21 -37q40 -72 64 -120q-26 262 -37 391q-17 198 -49 388q-3 12 -5 43q-2 26 14 40q12 11 39 14q25 3 55 3q20 0 56 -2t45 -2q25 -2 61 5q41 6 80 9q42 3 73 -4q32 -7 40 -37q7 -32 -5 -63q-12 -30 -12 -61q0 -203 -1 -303q-2 -150 3 -303q5 -117 13 -209
q10 -115 10 -207q0 -22 1 -39z" />
    <glyph glyph-name="o" unicode="o" horiz-adv-x="1310" 
d="M1196 864q20 -143 6 -275q-15 -140 -67 -254q-52 -115 -147 -196q-94 -80 -232 -100q-150 -21 -269 37q-118 58 -200 163q-84 108 -130 245q-47 140 -53 279q-6 145 26 269q33 126 110 211q68 73 162 116q96 44 191 56q44 6 99 3t109 -15q61 -13 103 -32q46 -20 81 -52
q83 -79 137 -198q55 -121 74 -257zM833 590q11 59 3 124q-8 67 -28 125q-22 63 -46 98q-8 14 -28 32q-16 14 -40 29q-24 14 -45 20q-23 6 -42 0q-44 -14 -65 -53q-22 -40 -26 -92q-4 -50 5 -111q8 -55 28 -115q17 -54 44 -99q26 -45 52 -65q30 -23 70 -16t68 29q39 33 50 94
z" />
    <glyph glyph-name="o" unicode="&#xf8;" horiz-adv-x="1310" 
d="M1196 864q20 -143 6 -275q-15 -140 -67 -254q-52 -115 -147 -196q-94 -80 -232 -100q-150 -21 -269 37q-118 58 -200 163q-84 108 -130 245q-47 140 -53 279q-6 145 26 269q33 126 110 211q68 73 162 116q96 44 191 56q44 6 99 3t109 -15q61 -13 103 -32q46 -20 81 -52
q83 -79 137 -198q55 -121 74 -257zM833 590q11 59 3 124q-8 67 -28 125q-22 63 -46 98q-8 14 -28 32q-16 14 -40 29q-24 14 -45 20q-23 6 -42 0q-44 -14 -65 -53q-22 -40 -26 -92q-4 -50 5 -111q8 -55 28 -115q17 -54 44 -99q26 -45 52 -65q30 -23 70 -16t68 29q39 33 50 94
z" />
    <glyph glyph-name="o" unicode="&#xf6;" horiz-adv-x="1310" 
d="M1196 864q20 -143 6 -275q-15 -140 -67 -254q-52 -115 -147 -196q-94 -80 -232 -100q-150 -21 -269 37q-118 58 -200 163q-84 108 -130 245q-47 140 -53 279q-6 145 26 269q33 126 110 211q68 73 162 116q96 44 191 56q44 6 99 3t109 -15q61 -13 103 -32q46 -20 81 -52
q83 -79 137 -198q55 -121 74 -257zM833 590q11 59 3 124q-8 67 -28 125q-22 63 -46 98q-8 14 -28 32q-16 14 -40 29q-24 14 -45 20q-23 6 -42 0q-44 -14 -65 -53q-22 -40 -26 -92q-4 -50 5 -111q8 -55 28 -115q17 -54 44 -99q26 -45 52 -65q30 -23 70 -16t68 29q39 33 50 94
z" />
    <glyph glyph-name="o" unicode="&#xf5;" horiz-adv-x="1310" 
d="M1196 864q20 -143 6 -275q-15 -140 -67 -254q-52 -115 -147 -196q-94 -80 -232 -100q-150 -21 -269 37q-118 58 -200 163q-84 108 -130 245q-47 140 -53 279q-6 145 26 269q33 126 110 211q68 73 162 116q96 44 191 56q44 6 99 3t109 -15q61 -13 103 -32q46 -20 81 -52
q83 -79 137 -198q55 -121 74 -257zM833 590q11 59 3 124q-8 67 -28 125q-22 63 -46 98q-8 14 -28 32q-16 14 -40 29q-24 14 -45 20q-23 6 -42 0q-44 -14 -65 -53q-22 -40 -26 -92q-4 -50 5 -111q8 -55 28 -115q17 -54 44 -99q26 -45 52 -65q30 -23 70 -16t68 29q39 33 50 94
z" />
    <glyph glyph-name="o" unicode="&#xf4;" horiz-adv-x="1310" 
d="M1196 864q20 -143 6 -275q-15 -140 -67 -254q-52 -115 -147 -196q-94 -80 -232 -100q-150 -21 -269 37q-118 58 -200 163q-84 108 -130 245q-47 140 -53 279q-6 145 26 269q33 126 110 211q68 73 162 116q96 44 191 56q44 6 99 3t109 -15q61 -13 103 -32q46 -20 81 -52
q83 -79 137 -198q55 -121 74 -257zM833 590q11 59 3 124q-8 67 -28 125q-22 63 -46 98q-8 14 -28 32q-16 14 -40 29q-24 14 -45 20q-23 6 -42 0q-44 -14 -65 -53q-22 -40 -26 -92q-4 -50 5 -111q8 -55 28 -115q17 -54 44 -99q26 -45 52 -65q30 -23 70 -16t68 29q39 33 50 94
z" />
    <glyph glyph-name="o" unicode="&#xf2;" horiz-adv-x="1310" 
d="M1196 864q20 -143 6 -275q-15 -140 -67 -254q-52 -115 -147 -196q-94 -80 -232 -100q-150 -21 -269 37q-118 58 -200 163q-84 108 -130 245q-47 140 -53 279q-6 145 26 269q33 126 110 211q68 73 162 116q96 44 191 56q44 6 99 3t109 -15q61 -13 103 -32q46 -20 81 -52
q83 -79 137 -198q55 -121 74 -257zM833 590q11 59 3 124q-8 67 -28 125q-22 63 -46 98q-8 14 -28 32q-16 14 -40 29q-24 14 -45 20q-23 6 -42 0q-44 -14 -65 -53q-22 -40 -26 -92q-4 -50 5 -111q8 -55 28 -115q17 -54 44 -99q26 -45 52 -65q30 -23 70 -16t68 29q39 33 50 94
z" />
    <glyph glyph-name="p" unicode="p" horiz-adv-x="1163" 
d="M1040 1141q29 -96 17 -201q-12 -104 -70 -199q-57 -92 -161 -162q-104 -71 -254 -93q-29 -5 -66 -3q2 -13 6 -51q1 -6 13 -87q8 -55 15 -103q3 -23 13 -99q6 -45 9 -77q3 -28 1 -34q-7 -11 -17 -16q-9 -5 -26 -8q-11 -2 -29 -4q-15 -2 -24 -3q-27 -2 -65 -7
q-37 -5 -96 -10q-51 -4 -94 -3q-41 1 -54 11q-10 10 -14 24q-3 10 -3 27q0 205 -12 406q-10 161 -15 406q-3 79 -5 238q-2 132 -7 238v33q0 18 12 30q5 5 8 7l9 6q103 31 214 34q102 3 218 1q53 -1 106 -6q55 -5 102 -19q104 -30 173 -106q67 -75 96 -170zM689 950
q25 45 21 89q-5 46 -37 77q-32 30 -93 43q-56 11 -145 -12q8 -114 12 -170t16 -170q87 19 145 59q55 37 81 84z" />
    <glyph glyph-name="q" unicode="q" horiz-adv-x="1304" 
d="M1197 51q12 -24 -8 -53q-8 -13 -36 -38q-29 -26 -63 -54q-43 -36 -66 -52q-32 -23 -43 -27q-30 -9 -59 6q-11 6 -40 36q-17 18 -60 67q-33 37 -59 71l-16 20t-15 18.5t-9 11.5q-63 -19 -111 -25q-57 -8 -114 0q-104 14 -174 56q-73 44 -119 108t-72 148q-24 79 -29 179
q-6 111 5 233q11 121 46 228q38 115 99 206q66 98 166 166q29 20 66 34q36 14 81 24q35 8 82 11q44 3 74 -2q109 -17 189 -63q78 -46 129 -113t78 -150q25 -76 33 -174q7 -101 -4 -184q-13 -97 -37 -182q-26 -93 -66 -185q-39 -89 -106 -164q22 -15 55 -33q60 -33 85 -48
q61 -36 79 -47q35 -22 39 -29zM788 697q12 55 12 110q0 57 -12 103q-13 50 -32 77q-23 31 -55 37q-34 6 -64 -3q-29 -9 -54 -32q-24 -23 -26 -54q-11 -11 -27 -52q-15 -38 -24 -91q-11 -61 -12 -108q-1 -54 11 -102q12 -46 40 -74t79 -24q43 4 77 35q31 28 54 76
q20 41 33 102z" />
    <glyph glyph-name="r" unicode="r" horiz-adv-x="1286" 
d="M1179 385q7 -9 0 -36q-7 -26 -24 -61q-19 -39 -39 -73q-17 -29 -46 -69q-21 -29 -43 -53q-20 -22 -31 -23q-13 -2 -29 4q-31 11 -37 14q-5 2 -12.5 5.5t-13.5 6t-11 5.5q-11 6 -29 15q-106 51 -196 116q-91 66 -173 151q0 -4 2 -12t5 -22t5 -27q8 -45 21 -100
q9 -41 19 -95q7 -39 7 -44q-7 -26 -41 -37q-21 -7 -56 -16q-10 -3 -47 -10q-25 -5 -67 -10q-32 -4 -67 -9q-27 -4 -44 -2q-33 4 -52 31q-20 28 -29 61q-10 38 -14 71q-6 52 -7 61q-14 119 -19 247q-4 109 -4 247q0 23 -2 107q-1 22 -1.5 67t-0.5 68q-2 84 2 145q5 78 16 141
q13 71 32 121q21 54 58 85q23 19 51 30q26 9 60 16q35 7 64 8q22 1 59 1q104 5 211 -12q109 -17 199 -59q95 -44 164 -118q71 -75 99 -187q9 -39 9 -77q0 -43 -7 -78q-26 -126 -95 -221q-71 -97 -182 -159q67 -43 122 -84q61 -45 126 -80q13 -8 47 -24q33 -16 41 -26z
M688 914q52 52 44 103q-7 51 -47 84q-40 34 -95 41q-56 7 -104 -23q-18 -13 -25 -55q-8 -49 -11 -93q-3 -57 -2 -99q1 -46 3 -68q21 10 60 23q42 14 63 22q34 13 62 27t52 38z" />
    <glyph glyph-name="s" unicode="s" horiz-adv-x="1064" 
d="M939 633q28 -64 22 -156q-6 -79 -35 -151q-30 -76 -79 -132q-72 -81 -167 -127q-97 -47 -200 -68q-7 -2 -25 -4.5t-27 -4.5q-25 -4 -67 -10q-35 -5 -65 -3q-31 2 -45 13q-14 9 -29 59q-17 56 -25 107q-9 57 -12 108t6 64q13 16 43 25q32 9 72 18q31 7 82 16q43 8 77 18
q33 10 54 26q20 16 16 40q-5 19 -31 36q-22 15 -64 34l-72 30q-34 14 -52 24q-109 64 -159 153q-51 90 -54 186t39 189q43 96 122 166q82 74 194 114q114 40 257 33q4 0 28 -2q19 -2 38 -6q31 -7 36 -9q15 -6 22 -14q2 -6 6 -29q2 -10 6 -61q5 -57 7 -78q3 -27 5 -77
q1 -24 1 -61q0 -26 -4 -30q-11 -11 -57 -14q-41 -3 -98 -11q-46 -7 -94 -25q-43 -16 -49 -59q-6 -36 24 -60q32 -26 76 -47q7 -3 44 -20.5t58 -28.5q54 -27 101 -68t74 -103z" />
    <glyph glyph-name="t" unicode="t" horiz-adv-x="1304" 
d="M1242 1309q6 -24 7 -39q1 -21 0 -42q-2 -28 -2 -35q-4 -39 -4 -41q-1 -15 -7 -52q-4 -23 -11 -50q-8 -24 -18 -34q-11 -11 -63 -13q-51 -1 -109 3q-73 6 -115 10q-43 5 -78 7q-3 -51 -6 -105q-4 -77 -9 -187q-7 -166 -10 -225q-6 -118 -12 -219q-1 -24 -3.5 -60.5t-4 -62
t-2.5 -45.5q-5 -67 -9 -72q-8 -10 -45 -15q-36 -4 -84 -3q-49 2 -104 6q-59 5 -103 13q-46 9 -82 18q-33 9 -40 19q-2 7 5 70q3 22 22 165q4 26 13.5 100t15.5 118t17 120.5t15 104.5q19 137 27 189q8 54 17 108q-66 -9 -136 -24q-66 -14 -136 -19q-47 -4 -61 44
q-5 21 -10 62q-6 46 -8 70q-4 48 -5 71q-2 46 -2 63q0 25 18 38q14 10 41 15q24 4 50 3q18 -1 44 -1q8 0 21 -0.5t38 -1t45 -0.5q122 -2 185 -5q39 -2 114.5 -4.5t106.5 -3.5q185 -7 216 -9q22 -1 167 -11q69 -5 76 -10q13 -9 18 -28z" />
    <glyph glyph-name="u" unicode="u" horiz-adv-x="1277" 
d="M1173 1181q5 -53 0 -134q-5 -82 -21 -182q-16 -101 -45 -208t-72 -207q-42 -100 -102 -182q-59 -81 -138 -133t-175 -59q-142 -9 -235 36q-97 47 -155 129q-60 85 -88 192q-29 110 -36 226q-7 114 2 233q9 118 27 210q16 82 39 155q20 62 35 76q26 21 43 24q18 3 49 3
q17 0 64 -7q34 -5 81 -19q34 -10 71 -33q32 -20 38 -48q4 -17 -6 -64q-6 -31 -25 -98q-14 -50 -30 -116q-13 -54 -20 -123q-6 -59 3 -113q9 -56 41 -92q26 -29 52 -33t52 8q28 13 48 33q21 21 37 45q39 61 67 158q28 100 44 183q22 117 27 155q9 66 17 74q11 11 32 13
q24 2 44 -2q38 -7 45 -9q25 -7 38 -8q1 0 11.5 -1.5t18.5 -2.5q11 -1 40 -5q6 -1 20 -2.5t20 -2.5q17 -3 25 -9q13 -8 17 -60z" />
    <glyph glyph-name="u" unicode="&#xfc;" horiz-adv-x="1277" 
d="M1173 1181q5 -53 0 -134q-5 -82 -21 -182q-16 -101 -45 -208t-72 -207q-42 -100 -102 -182q-59 -81 -138 -133t-175 -59q-142 -9 -235 36q-97 47 -155 129q-60 85 -88 192q-29 110 -36 226q-7 114 2 233q9 118 27 210q16 82 39 155q20 62 35 76q26 21 43 24q18 3 49 3
q17 0 64 -7q34 -5 81 -19q34 -10 71 -33q32 -20 38 -48q4 -17 -6 -64q-6 -31 -25 -98q-14 -50 -30 -116q-13 -54 -20 -123q-6 -59 3 -113q9 -56 41 -92q26 -29 52 -33t52 8q28 13 48 33q21 21 37 45q39 61 67 158q28 100 44 183q22 117 27 155q9 66 17 74q11 11 32 13
q24 2 44 -2q38 -7 45 -9q25 -7 38 -8q1 0 11.5 -1.5t18.5 -2.5q11 -1 40 -5q6 -1 20 -2.5t20 -2.5q17 -3 25 -9q13 -8 17 -60z" />
    <glyph glyph-name="u" unicode="&#xfb;" horiz-adv-x="1277" 
d="M1173 1181q5 -53 0 -134q-5 -82 -21 -182q-16 -101 -45 -208t-72 -207q-42 -100 -102 -182q-59 -81 -138 -133t-175 -59q-142 -9 -235 36q-97 47 -155 129q-60 85 -88 192q-29 110 -36 226q-7 114 2 233q9 118 27 210q16 82 39 155q20 62 35 76q26 21 43 24q18 3 49 3
q17 0 64 -7q34 -5 81 -19q34 -10 71 -33q32 -20 38 -48q4 -17 -6 -64q-6 -31 -25 -98q-14 -50 -30 -116q-13 -54 -20 -123q-6 -59 3 -113q9 -56 41 -92q26 -29 52 -33t52 8q28 13 48 33q21 21 37 45q39 61 67 158q28 100 44 183q22 117 27 155q9 66 17 74q11 11 32 13
q24 2 44 -2q38 -7 45 -9q25 -7 38 -8q1 0 11.5 -1.5t18.5 -2.5q11 -1 40 -5q6 -1 20 -2.5t20 -2.5q17 -3 25 -9q13 -8 17 -60z" />
    <glyph glyph-name="u" unicode="&#xf9;" horiz-adv-x="1277" 
d="M1173 1181q5 -53 0 -134q-5 -82 -21 -182q-16 -101 -45 -208t-72 -207q-42 -100 -102 -182q-59 -81 -138 -133t-175 -59q-142 -9 -235 36q-97 47 -155 129q-60 85 -88 192q-29 110 -36 226q-7 114 2 233q9 118 27 210q16 82 39 155q20 62 35 76q26 21 43 24q18 3 49 3
q17 0 64 -7q34 -5 81 -19q34 -10 71 -33q32 -20 38 -48q4 -17 -6 -64q-6 -31 -25 -98q-14 -50 -30 -116q-13 -54 -20 -123q-6 -59 3 -113q9 -56 41 -92q26 -29 52 -33t52 8q28 13 48 33q21 21 37 45q39 61 67 158q28 100 44 183q22 117 27 155q9 66 17 74q11 11 32 13
q24 2 44 -2q38 -7 45 -9q25 -7 38 -8q1 0 11.5 -1.5t18.5 -2.5q11 -1 40 -5q6 -1 20 -2.5t20 -2.5q17 -3 25 -9q13 -8 17 -60z" />
    <glyph glyph-name="v" unicode="v" horiz-adv-x="1214" 
d="M1112 1224q1 -7 -11 -53q-7 -27 -32 -109q-8 -27 -44 -139q-6 -19 -22 -69t-24 -76q-26 -82 -39 -124q-20 -65 -23 -76l-8.5 -34t-10.5 -44q-5 -19 -14 -57t-11 -46q-7 -30 -31 -114q-17 -60 -36 -110q-22 -58 -40 -91q-21 -39 -44 -56t-52 -23q-32 -7 -57 -8h-84
q-56 0 -113 6q-58 6 -107 18q-50 12 -67 38q-13 18 -28 84q-15 63 -30 158q-12 77 -28 207q-14 114 -24 229q-11 121 -18 228q-6 95 -10 201q-3 88 0 147q3 57 12 69q9 13 27 19q6 2 32 10q35 7 72 6t72 0q38 1 79 14q37 11 79 16q16 4 38 2q18 -1 35 -11q15 -9 20 -23
q3 -9 9 -29q7 -47 4 -133t-12 -186q-2 -25 -9 -96.5t-10 -112.5q-9 -108 -15 -204q-6 -100 -2 -173q5 -80 24 -113q5 0 12 10q2 3 9 22q3 8 7 24q3 12 3 19q5 24 13 105q2 21 8.5 79t9.5 94q4 46 22 203q12 110 27 199q14 88 35 156q20 66 42 79q15 9 44 9q24 0 46 -2
q59 -9 72 -12q41 -8 87 -26q43 -16 76 -42q34 -27 40 -59z" />
    <glyph glyph-name="w" unicode="w" horiz-adv-x="1681" 
d="M1574 616q5 -86 5 -190q0 -97 -5 -151q-6 -66 -17 -92q-20 -46 -73 -82q-50 -34 -115 -57q-57 -21 -128 -32q-64 -10 -112 -9q-21 1 -70 7q-32 4 -68 22q-44 26 -75 91q-32 67 -54 146q-21 75 -37 157q-19 96 -23 125q-18 -62 -54 -190q-28 -99 -72 -173
q-47 -78 -121 -123q-75 -45 -196 -33q-37 2 -67 7q-29 5 -60 19q-30 13 -51 33q-23 21 -36 57q-26 64 -35 158q-9 90 -7 205q1 103 11 231q8 108 23 232q15 126 28 211q21 136 26 167q0 2 6 44q3 24 18 40q16 18 49 27q29 8 76 13q39 4 89 1q51 -3 86 -11q41 -9 72 -24
q30 -14 43 -37q12 -22 8 -89q-5 -76 -16 -149q-19 -127 -23 -150q-9 -54 -19 -99q-6 -26 -23 -92q-15 -57 -30 -117q-16 -65 -26 -115q-11 -57 -7 -83l14 -5q19 9 38 44q16 29 38 84q10 26 38 102q7 20 20 55.5t18 48.5q14 38 35 90q15 37 32 59q23 27 55 24q42 -4 62 -5
q21 0 42 3q19 3 42 -7q18 -8 34 -43q23 -49 37 -87q20 -53 39 -112q15 -48 41 -118q19 -51 44 -103q23 -47 48 -68q4 38 -3 124q-4 58 -19 169q-7 53 -28 187q-18 114 -25 180q-9 83 -12 144q-3 62 10 82q12 21 32 33q18 11 41 21q43 15 67 22q42 12 86 18q41 6 84 1
q39 -4 59 -30q13 -15 28 -74q12 -47 26 -139q12 -83 24 -181q11 -91 19 -205q10 -140 14 -209z" />
    <glyph glyph-name="x" unicode="x" horiz-adv-x="1337" 
d="M1226 1128q17 -38 2 -72q-12 -28 -58 -75q-52 -54 -103 -102q-18 -17 -55 -52.5t-56 -53.5q-62 -59 -84 -84q49 -99 118 -187q78 -100 140 -170q11 -13 19 -28q8 -16 8 -32q0 -19 -1 -29q-1 -15 -10 -26q-14 -35 -39 -69q-27 -37 -57 -64q-32 -29 -70 -49
q-40 -20 -75 -26q-18 -4 -46 19q-26 21 -57 59q-33 40 -62 81q-39 55 -59 88q-8 13 -24.5 39.5t-24.5 38.5q-21 34 -33 51q-48 -55 -94 -125q-45 -69 -81 -133q-19 -33 -46 -40q-12 -5 -26 -6q-15 -1 -24 8q-43 12 -78 37q-36 26 -65 59q-20 22 -33 41q-19 27 -29 49
q-12 25 -18 53q-6 27 3 50q7 22 46 77q37 52 79 106q37 48 86 105q37 44 64 76q-23 40 -60 111q-31 59 -69 148q-31 74 -47 149q-15 72 8 116q22 39 56 66q36 28 70 48q22 11 27 13q10 4 32 12q19 7 32 8q17 2 28 -4q19 -9 45 -55q35 -63 58 -107q21 -40 57 -115
q27 -56 39 -78l72 72q44 44 102 94q46 40 107 78q52 33 89 31q27 -1 51 -15q23 -13 44 -34q17 -17 36 -43q16 -23 30 -42q18 -27 36 -67z" />
    <glyph glyph-name="y" unicode="y" horiz-adv-x="1474" 
d="M1348 1419q25 -25 25 -46q0 -17 -17 -54q-11 -24 -38 -78q-25 -50 -43 -80q-21 -36 -30 -58q-114 -247 -173 -499q-60 -254 -96 -521q-2 -8 -4.5 -22.5t-3.5 -18.5q-4 -21 -21 -35q-23 -17 -58 -14q-52 4 -62 6q-12 2 -65 8q-16 2 -47 4.5t-45 3.5q-19 2 -51 5.5t-37 4.5
q-39 4 -49 11q-12 6 -20 14q-11 11 -17 20q-10 17 -5 64q5 53 16 110q12 63 30 135q4 16 37 137q21 77 33 119q8 28 25 79q-92 -33 -160 -30q-67 3 -117 32q-49 28 -84 78q-32 46 -59 111q-25 60 -43 131q-4 14 -17 62t-19 74q-3 13 -9.5 38.5t-9.5 37.5q-10 40 -11 75
q-2 27 6 46q9 23 26 38q19 19 50 30q44 16 68 22q40 10 70 15q9 2 30.5 5t30.5 5q67 12 103 -7q34 -18 49 -54q16 -37 17 -86l3 -102q1 -48 11 -99q9 -47 42 -82q19 -21 40 -21q22 0 41 10q18 10 38 28q16 15 30 34q3 4 19 47q3 9 15 40.5t19 50.5q12 33 34 95q13 37 26 65
q10 22 32 64q16 31 46 53q25 19 66 22q37 3 88 -7q48 -9 95 -27q45 -17 87 -42q40 -24 63 -47z" />
    <glyph glyph-name="y" unicode="&#xff;" horiz-adv-x="1474" 
d="M1348 1419q25 -25 25 -46q0 -17 -17 -54q-11 -24 -38 -78q-25 -50 -43 -80q-21 -36 -30 -58q-114 -247 -173 -499q-60 -254 -96 -521q-2 -8 -4.5 -22.5t-3.5 -18.5q-4 -21 -21 -35q-23 -17 -58 -14q-52 4 -62 6q-12 2 -65 8q-16 2 -47 4.5t-45 3.5q-19 2 -51 5.5t-37 4.5
q-39 4 -49 11q-12 6 -20 14q-11 11 -17 20q-10 17 -5 64q5 53 16 110q12 63 30 135q4 16 37 137q21 77 33 119q8 28 25 79q-92 -33 -160 -30q-67 3 -117 32q-49 28 -84 78q-32 46 -59 111q-25 60 -43 131q-4 14 -17 62t-19 74q-3 13 -9.5 38.5t-9.5 37.5q-10 40 -11 75
q-2 27 6 46q9 23 26 38q19 19 50 30q44 16 68 22q40 10 70 15q9 2 30.5 5t30.5 5q67 12 103 -7q34 -18 49 -54q16 -37 17 -86l3 -102q1 -48 11 -99q9 -47 42 -82q19 -21 40 -21q22 0 41 10q18 10 38 28q16 15 30 34q3 4 19 47q3 9 15 40.5t19 50.5q12 33 34 95q13 37 26 65
q10 22 32 64q16 31 46 53q25 19 66 22q37 3 88 -7q48 -9 95 -27q45 -17 87 -42q40 -24 63 -47z" />
    <glyph glyph-name="y" unicode="&#xfd;" horiz-adv-x="1474" 
d="M1348 1419q25 -25 25 -46q0 -17 -17 -54q-11 -24 -38 -78q-25 -50 -43 -80q-21 -36 -30 -58q-114 -247 -173 -499q-60 -254 -96 -521q-2 -8 -4.5 -22.5t-3.5 -18.5q-4 -21 -21 -35q-23 -17 -58 -14q-52 4 -62 6q-12 2 -65 8q-16 2 -47 4.5t-45 3.5q-19 2 -51 5.5t-37 4.5
q-39 4 -49 11q-12 6 -20 14q-11 11 -17 20q-10 17 -5 64q5 53 16 110q12 63 30 135q4 16 37 137q21 77 33 119q8 28 25 79q-92 -33 -160 -30q-67 3 -117 32q-49 28 -84 78q-32 46 -59 111q-25 60 -43 131q-4 14 -17 62t-19 74q-3 13 -9.5 38.5t-9.5 37.5q-10 40 -11 75
q-2 27 6 46q9 23 26 38q19 19 50 30q44 16 68 22q40 10 70 15q9 2 30.5 5t30.5 5q67 12 103 -7q34 -18 49 -54q16 -37 17 -86l3 -102q1 -48 11 -99q9 -47 42 -82q19 -21 40 -21q22 0 41 10q18 10 38 28q16 15 30 34q3 4 19 47q3 9 15 40.5t19 50.5q12 33 34 95q13 37 26 65
q10 22 32 64q16 31 46 53q25 19 66 22q37 3 88 -7q48 -9 95 -27q45 -17 87 -42q40 -24 63 -47z" />
    <glyph glyph-name="z" unicode="z" horiz-adv-x="1163" 
d="M1059 1302h1q4 -12 0 -39q-6 -34 -8 -41q-21 -116 -19 -241q0 -17 -12 -34q-16 -22 -28 -33q-5 -5 -17 -14.5t-18 -14.5q-19 -17 -28 -24q-99 -84 -202 -183q-97 -92 -184 -201l50 -5q14 -1 44.5 -4t37.5 -4q62 -6 96 -10q51 -6 93 -12q38 -7 71 -15q29 -7 34 -15
q6 -12 3 -34q-3 -25 -9 -49q-8 -34 -13 -50q-9 -29 -10 -39q-3 -28 -4 -37q0 -8 -1.5 -26t-2.5 -27q-1 -26 -6 -49q-4 -22 -13 -29q-8 -7 -16 -8q-12 -2 -18 -2q-26 -2 -48 3q-7 2 -22.5 5t-23.5 4q-138 26 -281 43q-138 17 -284 12q-21 0 -32 1q-15 1 -29 9q-21 9 -36 32
q-13 19 -18 44q-4 17 -4 59q0 45 4 85q4 38 11 83q6 38 16 56t56 64q65 65 103 101q71 67 109 102q58 53 74 69q76 68 172 166q-99 11 -164 16q-90 6 -167 2q-9 0 -39 -7q-34 -8 -52 -11q-27 -4 -51 -3q-23 1 -31 17q-5 8 -7 49q-1 40 0 88q0 16 0.5 47t1.5 46q1 30 1 66
q0 7 2 23q1 11 11 21q13 11 34 14q18 3 35 3q91 1 179 -9q79 -9 180 -16q110 -8 208 -8q104 0 208 -9q8 -1 37 -7q20 -4 26 -20z" />
    <glyph glyph-name="nonbreakingspace" unicode="&#xa0;" horiz-adv-x="632" 
 />
    <glyph glyph-name="exclamdown" unicode="&#xa1;" horiz-adv-x="739" 
d="M577 893q11 -15 14 -83q3 -65 0 -156q-4 -129 -9 -194q-5 -94 -17 -193q-10 -81 -23 -154q-12 -63 -26 -79q-11 -11 -31 -12q-28 -2 -34 -2q-58 -2 -117 12q-56 13 -116 13q-21 0 -45 -3q-22 -3 -43 7q-20 8 -27 34q-2 11 1 43q1 11 8 74q5 47 10 77q7 45 8 53
q19 153 24 264q6 109 8 267q0 36 4 53q4 19 42 25q19 3 80 5q56 2 115 -3q69 -5 110 -15q50 -12 64 -33zM630 1300q14 -48 3 -101q-11 -51 -47 -93q-35 -41 -106 -67q-80 -29 -157 -6t-123 76q-47 55 -53 126q-6 72 54 144q35 40 77 65t96 30q65 6 118 -18q52 -24 88 -64
q34 -39 50 -92z" />
    <glyph glyph-name="softhyphen" unicode="&#xad;" horiz-adv-x="0" 
 />
    <glyph glyph-name="acute" unicode="&#xb4;" horiz-adv-x="626" 
d="M502 1366q42 -50 6 -95q-13 -14 -35 -38q-12 -13 -41 -46q-7 -8 -20.5 -22.5t-19.5 -21.5q-20 -23 -26 -37q-15 -26 -25 -48q-11 -24 -27 -46q-18 -26 -49 -29q-30 -3 -60 9q-31 12 -56 33q-28 23 -37 44q-15 35 -5 93q11 62 34 122q26 68 53 118q30 56 51 84
q18 24 56 15q39 -10 76 -34q32 -21 74 -56q36 -30 51 -45z" />
    <glyph glyph-name="questiondown" unicode="&#xbf;" horiz-adv-x="1253" 
d="M1133 573q26 -61 13 -132q-29 -152 -111 -251t-194 -145q-108 -45 -245 -36q-132 9 -262 76q-54 29 -96 62q-44 34 -78 82q-35 47 -48 107q-13 58 -8 123t25 121q21 57 58 101q30 37 61 61q23 18 71 54q21 16 69 55q36 29 57 62q17 23 23 60q7 43 13 70q8 33 19 52
q13 21 40 9q78 -32 139 -53q76 -26 142 -41q10 -2 16 0q7 2 15 0q15 -5 18 -17q3 -14 0 -31q-2 -14 -8 -32q-7 -22 -8 -25q-20 -59 -60 -96q-48 -44 -83 -71q-40 -31 -81 -68q-40 -36 -55 -80q-20 -50 -5 -98t46 -76q32 -29 71 -32t73 34q-45 14 -60 59t-11 86q7 81 48 125
t95 54q56 10 117 -9q62 -20 110 -60q48 -41 74 -100zM594 1148q-66 41 -81 94q-17 58 1 111q18 54 67 95q48 40 114 45q53 4 111 -24q55 -27 88 -73q42 -58 25 -121t-65 -105q-47 -41 -120 -52q-71 -10 -140 30z" />
    <glyph glyph-name="Aacute" unicode="&#xc1;" horiz-adv-x="1239" 
d="M1066 1075q33 -88 48 -191q15 -99 13 -211q-2 -116 -10 -213q-8 -91 -27 -195q-16 -89 -36 -158q-6 -21 -20 -51q-9 -19 -30 -46q-11 -13 -35 -17q-20 -4 -51 -2q-26 1 -52 6q-36 6 -43 7q-95 13 -133 29q-35 15 -35 44t22 76q25 54 43 122q-55 4 -109 15q-46 9 -109 14
q0 -18 3 -58q2 -27 2 -86q0 -57 -2 -82q-3 -38 -15 -45q-21 -14 -77 -13q-62 2 -123 13q-72 13 -119 29q-53 18 -61 41l-4 12q-2 10 -2 11q-5 93 0 217q5 127 22 253q17 122 55 257q36 127 97 230t151 172t214 84q114 14 197 -18q82 -31 137 -94q56 -64 89 -152zM789 699
q3 52 0 106q-3 52 -15 90t-39 53t-73 -10q-38 -21 -63 -66q-25 -44 -40 -98q-16 -59 -23 -107q-1 -8 -6 -43t-7 -51q63 5 126 -3q55 -7 124 -25q1 8 8 59q4 30 8 95zM761 1450q-25 21 -36 45q-15 35 -5 93q11 62 34 122q26 68 53 118q30 56 51 84q18 23 55 14q39 -10 76 -34
q42 -27 75 -55q30 -25 51 -46q41 -49 5 -94q-1 -1 -13.5 -15t-20.5 -23q-28 -30 -42 -46q-21 -24 -39 -45q-21 -24 -26 -36q-12 -21 -25 -49q-11 -24 -27 -46q-18 -26 -49 -29q-28 -3 -60 10q-35 14 -57 32z" />
    <glyph glyph-name="Eacute" unicode="&#xc9;" horiz-adv-x="1110" 
d="M1006 325q2 -48 2 -77q0 -45 -4 -76q-7 -56 -8 -60q-4 -25 -13 -30q-10 -6 -45 -11q-33 -4 -80 -6q-62 -2 -100 -2q-70 0 -103 -1t-91 -1q-47 0 -60 -1q-40 -4 -97 -11q-28 -4 -94 -16q-3 -1 -12 -2.5t-14 -2.5q-21 -4 -35 -5q-24 -2 -33 -2q-16 0 -23 4q-10 9 -16 24
q-7 19 -7 28q0 303 -14 569q-15 291 -55 566q-2 12 -2 22q0 12 6 21q15 23 78 39q57 15 144 28q78 12 150 18q23 2 56.5 5t43.5 4q6 0 76 8q37 4 115 8q60 3 108 -3q49 -6 56 -24q3 -5 5 -25q1 -11 1 -36q0 -24 -1 -36t-1 -28q0 -4 2 -32q0 -7 1.5 -21t2.5 -22q1 -15 3 -41
q1 -16 -1 -25q-7 -16 -37 -25q-35 -10 -77 -17q-46 -8 -97 -12q-41 -4 -101 -11q-53 -7 -85 -13q-37 -7 -50 -19q-8 -6 -11 -23q-3 -15 -1 -37q1 -13 5 -37q3 -20 7 -26l13 -7q34 0 82 14q51 15 105 24q58 10 98 4q44 -6 59 -46q14 -35 12 -71q-1 -36 0 -72q0 -15 1 -25
l3 -33q2 -17 0 -32q-2 -18 -4 -21q-9 -15 -55 -24q-37 -7 -99 -16q-74 -10 -105 -13q-53 -5 -70 -10q0 -32 3 -67q6 -63 6 -67q76 5 145 22q72 18 144 24q13 1 35 3q13 1 41 1q18 0 40 -5q18 -4 31 -14q9 -8 14 -34q6 -33 7 -62zM470 1494q-28 23 -37 44q-15 35 -5 93
q11 62 34 122q23 61 54 118q30 55 51 84q18 24 55 15q36 -9 76 -35q37 -24 74 -55q42 -35 52 -45q42 -49 5 -95q-1 -1 -13.5 -15t-20.5 -23q-28 -30 -42 -46q-7 -8 -20.5 -22.5t-19.5 -21.5q-20 -23 -26 -37q-15 -26 -25 -48q-11 -24 -27 -46q-18 -26 -49 -29q-30 -3 -60 9
q-31 12 -56 33z" />
    <glyph glyph-name="Iacute" unicode="&#xcd;" horiz-adv-x="784" 
d="M576 843q9 -8 11 -38q1 -26 -2 -74q-3 -43 -9 -93q-4 -33 -12 -95q-2 -15 -5.5 -42.5t-5.5 -39.5q-1 -12 -4 -29.5t-3 -22.5q-3 -28 -4 -50q-1 -33 -3 -85t-3 -97q-1 -48 -3 -94q-1 -42 -3 -70q-1 -18 -1 -30q-4 -13 -17 -19q-15 -7 -25 -8q-46 -7 -100 -4q-33 2 -99 4
q-15 0 -40 3q-17 2 -51 8q-28 5 -48 13q-22 9 -31 24q-8 15 -13 82q-4 60 -1 156q3 92 9 193q5 93 17 192q10 84 23 155q12 64 26 80q9 11 38 13q32 2 62 -1q44 -4 65 -7q11 -1 26 -4t19 -3l163 -10q3 0 13 -2q7 -2 11 -5zM661 1356q41 -49 5 -94q-1 -1 -13.5 -15t-20.5 -23
q-28 -30 -42 -46q-7 -8 -20.5 -22.5t-19.5 -21.5q-20 -23 -26 -37q-12 -21 -25 -49q-10 -21 -27 -45q-18 -26 -49 -29q-30 -3 -60 9q-31 12 -56 33q-28 23 -37 44q-15 35 -5 93q11 62 34 122q23 61 54 118q30 55 51 84q18 23 55 14q39 -10 76 -34t74 -55q36 -30 52 -46z" />
    <glyph glyph-name="Ntilde" unicode="&#xd1;" 
d="M272 1492q-35 0 -72 67t-37 104q0 33 104 93t173 60q72 0 169 -32q101 -33 144 -33q14 0 95 33q79 32 118 32q38 0 77 -70t39 -104q0 -28 -98 -89t-172 -61t-176 33t-132 33t-114 -33t-118 -33zM1195 222q1 -17 1 -53q0 -18 -2 -50q-2 -25 -6 -34q-9 -22 -40 -33
q-32 -11 -67 -14q-24 -2 -73 -2q-38 0 -57 -4q-9 -1 -30 -6q-19 -4 -40 -6q-20 -2 -37 0q-18 2 -27 14q-4 4 -10 17q-5 11 -11 19q-67 112 -113 183q-56 87 -135 170q1 -5 8 -44q2 -10 5.5 -34t6.5 -38q2 -12 7 -40t7 -44q9 -65 11 -82q5 -42 5 -67q0 -30 -4 -37
q-23 2 -56 0q-48 -2 -70 -4q-48 -4 -70 -7q-38 -5 -56 -10q-11 -1 -29 -8q-28 -10 -36 -12q-17 -4 -35 -2q-15 1 -21 17q0 2 -0.5 4t-1 6t-0.5 7q-1 4 -1.5 12.5t-0.5 13.5q-1 10 -1 27v20q-2 41 -4.5 123t-3.5 122q-5 135 -13 245q-8 111 -28 243q-18 117 -53 239
q-1 4 -4 15t-5 18q-6 18 2 34q5 12 33 22q29 10 71 21q38 10 90 18q30 5 91 11q43 4 76 3q34 -2 42 -8q8 -7 17 -27q8 -19 18 -47q3 -9 16 -50q6 -18 12 -35q21 -64 50 -127q33 -70 61 -122q7 -13 20.5 -38t24.5 -45t21 -37q40 -72 64 -120q-26 262 -37 391q-17 198 -49 388
q-3 12 -5 43q-2 26 14 40q12 11 39 14q25 3 55 3q20 0 56 -2t45 -2q25 -2 61 5q41 6 80 9q42 3 73 -4q32 -7 40 -37q7 -32 -5 -63q-12 -30 -12 -61q0 -203 -1 -303q-2 -150 3 -303q5 -117 13 -209q10 -115 10 -207q0 -22 1 -39z" />
    <glyph glyph-name="Oacute" unicode="&#xd3;" horiz-adv-x="1310" 
d="M1196 840q20 -143 6 -275q-15 -140 -67 -254q-52 -115 -147 -196q-93 -79 -232 -99q-152 -21 -269 36q-118 58 -200 163q-84 108 -130 245q-47 140 -53 280q-6 144 26 268q33 126 110 211q70 75 162 117q93 43 191 55q44 6 99 3q61 -3 109 -14q56 -12 103 -33
q46 -20 81 -52q83 -79 137 -198q55 -121 74 -257zM833 566q11 59 3 124q-8 67 -28 125q-22 63 -46 98q-8 14 -28 32q-19 17 -40 30t-45 19q-23 6 -42 0q-44 -14 -65 -53q-22 -40 -26 -92q-4 -50 5 -111q8 -55 28 -115q17 -54 44 -99q26 -45 52 -65q30 -23 70 -16t68 29
q39 33 50 94zM528 1552q-26 22 -36 44q-16 37 -6 93q10 57 35 122q26 68 53 118q30 55 51 84q18 24 55 15q36 -9 76 -35q42 -27 75 -55q36 -30 51 -45q42 -49 5 -95q-1 -1 -13.5 -15t-20.5 -23q-28 -30 -42 -46q-6 -7 -19 -21.5t-20 -22.5q-20 -23 -26 -37q-15 -26 -25 -48
q-11 -24 -27 -46q-18 -26 -49 -29q-30 -3 -60 9q-33 13 -57 33z" />
    <glyph glyph-name="Uacute" unicode="&#xda;" horiz-adv-x="1277" 
d="M1173 1157q5 -53 0 -134q-5 -82 -21 -182q-16 -98 -45 -207t-72 -208q-42 -100 -102 -182q-59 -81 -138 -133t-175 -59q-142 -9 -235 36q-97 47 -155 129q-60 85 -88 192q-29 110 -36 226q-7 114 2 234q9 116 27 209q16 82 39 155q20 62 35 76q26 21 43 24q18 3 49 3
q17 0 64 -7q34 -5 81 -19q36 -11 72 -33q31 -19 37 -48q4 -17 -6 -64q-6 -31 -25 -98q-6 -21 -29 -116q-13 -54 -20 -123q-6 -63 2 -113q9 -56 41 -92q25 -27 52 -32q28 -5 53 7t47 34q26 26 38 44q38 58 66 158t44 183q22 117 27 155q9 66 17 74q11 11 32 13q24 2 44 -2
q41 -8 46 -9q26 -7 37 -8q3 0 8.5 -1l11 -2t11.5 -1q11 -1 40 -5q6 -1 19 -2.5t20 -2.5q19 -3 26 -9q11 -7 16 -60zM622 1450q-27 22 -37 45q-15 35 -5 93q11 62 34 122q23 61 54 118q30 56 51 84q18 23 55 14q39 -10 76 -34t74 -55q36 -30 52 -46q41 -49 5 -94
q-1 -1 -13.5 -15t-20.5 -23q-28 -30 -42 -46q-6 -7 -19.5 -22t-20.5 -23q-21 -24 -26 -36q-12 -21 -25 -49q-11 -24 -27 -46q-18 -26 -49 -29q-28 -3 -60 10q-33 13 -56 32z" />
    <glyph glyph-name="aacute" unicode="&#xe1;" horiz-adv-x="1239" 
d="M1066 1075q33 -88 48 -191q15 -99 13 -211q-2 -116 -10 -213q-8 -91 -27 -195q-16 -89 -36 -158q-6 -21 -20 -51q-9 -19 -30 -46q-11 -13 -35 -17q-20 -4 -51 -2q-26 1 -52 6q-36 6 -43 7q-95 13 -133 29q-35 15 -35 44t22 76q25 54 43 122q-55 4 -109 15q-46 9 -109 14
q0 -18 3 -58q2 -27 2 -86q0 -57 -2 -82q-3 -38 -15 -45q-21 -14 -77 -13q-62 2 -123 13q-72 13 -119 29q-53 18 -61 41l-4 12q-2 10 -2 11q-5 93 0 217q5 127 22 253q17 122 55 257q36 127 97 230t151 172t214 84q114 14 197 -18q82 -31 137 -94q56 -64 89 -152zM789 699
q3 52 0 106q-3 52 -15 90t-39 53t-73 -10q-38 -21 -63 -66q-25 -44 -40 -98q-16 -59 -23 -107q-1 -8 -6 -43t-7 -51q63 5 126 -3q55 -7 124 -25q1 8 8 59q4 30 8 95zM761 1450q-25 21 -36 45q-15 35 -5 93q11 62 34 122q26 68 53 118q30 56 51 84q18 23 55 14q39 -10 76 -34
q42 -27 75 -55q30 -25 51 -46q41 -49 5 -94q-1 -1 -13.5 -15t-20.5 -23q-28 -30 -42 -46q-21 -24 -39 -45q-21 -24 -26 -36q-12 -21 -25 -49q-11 -24 -27 -46q-18 -26 -49 -29q-28 -3 -60 10q-35 14 -57 32z" />
    <glyph glyph-name="eacute" unicode="&#xe9;" horiz-adv-x="1110" 
d="M1006 325q2 -48 2 -77q0 -45 -4 -76q-7 -56 -8 -60q-4 -25 -13 -30q-10 -6 -45 -11q-33 -4 -80 -6q-62 -2 -100 -2q-70 0 -103 -1t-91 -1q-47 0 -60 -1q-40 -4 -97 -11q-28 -4 -94 -16q-3 -1 -12 -2.5t-14 -2.5q-21 -4 -35 -5q-24 -2 -33 -2q-16 0 -23 4q-10 9 -16 24
q-7 19 -7 28q0 303 -14 569q-15 291 -55 566q-2 12 -2 22q0 12 6 21q15 23 78 39q57 15 144 28q78 12 150 18q23 2 56.5 5t43.5 4q6 0 76 8q37 4 115 8q60 3 108 -3q49 -6 56 -24q3 -5 5 -25q1 -11 1 -36q0 -24 -1 -36t-1 -28q0 -4 2 -32q0 -7 1.5 -21t2.5 -22q1 -15 3 -41
q1 -16 -1 -25q-7 -16 -37 -25q-35 -10 -77 -17q-46 -8 -97 -12q-41 -4 -101 -11q-53 -7 -85 -13q-37 -7 -50 -19q-8 -6 -11 -23q-3 -15 -1 -37q1 -13 5 -37q3 -20 7 -26l13 -7q34 0 82 14q51 15 105 24q58 10 98 4q44 -6 59 -46q14 -35 12 -71q-1 -36 0 -72q0 -15 1 -25
l3 -33q2 -17 0 -32q-2 -18 -4 -21q-9 -15 -55 -24q-37 -7 -99 -16q-74 -10 -105 -13q-53 -5 -70 -10q0 -32 3 -67q6 -63 6 -67q76 5 145 22q72 18 144 24q13 1 35 3q13 1 41 1q18 0 40 -5q18 -4 31 -14q9 -8 14 -34q6 -33 7 -62zM470 1494q-28 23 -37 44q-15 35 -5 93
q11 62 34 122q23 61 54 118q30 55 51 84q18 24 55 15q36 -9 76 -35q37 -24 74 -55q42 -35 52 -45q42 -49 5 -95q-1 -1 -13.5 -15t-20.5 -23q-28 -30 -42 -46q-7 -8 -20.5 -22.5t-19.5 -21.5q-20 -23 -26 -37q-15 -26 -25 -48q-11 -24 -27 -46q-18 -26 -49 -29q-30 -3 -60 9
q-31 12 -56 33z" />
    <glyph glyph-name="iacute" unicode="&#xed;" horiz-adv-x="784" 
d="M576 843q9 -8 11 -38q1 -26 -2 -74q-3 -43 -9 -93q-4 -33 -12 -95q-2 -15 -5.5 -42.5t-5.5 -39.5q-1 -12 -4 -29.5t-3 -22.5q-3 -28 -4 -50q-1 -33 -3 -85t-3 -97q-1 -48 -3 -94q-1 -42 -3 -70q-1 -18 -1 -30q-4 -13 -17 -19q-15 -7 -25 -8q-46 -7 -100 -4q-33 2 -99 4
q-15 0 -40 3q-17 2 -51 8q-28 5 -48 13q-22 9 -31 24q-8 15 -13 82q-4 60 -1 156q3 92 9 193q5 93 17 192q10 84 23 155q12 64 26 80q9 11 38 13q32 2 62 -1q44 -4 65 -7q11 -1 26 -4t19 -3l163 -10q3 0 13 -2q7 -2 11 -5zM661 1356q41 -49 5 -94q-1 -1 -13.5 -15t-20.5 -23
q-28 -30 -42 -46q-7 -8 -20.5 -22.5t-19.5 -21.5q-20 -23 -26 -37q-12 -21 -25 -49q-10 -21 -27 -45q-18 -26 -49 -29q-30 -3 -60 9q-31 12 -56 33q-28 23 -37 44q-15 35 -5 93q11 62 34 122q23 61 54 118q30 55 51 84q18 23 55 14q39 -10 76 -34t74 -55q36 -30 52 -46z" />
    <glyph glyph-name="ntilde" unicode="&#xf1;" 
d="M272 1492q-35 0 -72 67t-37 104q0 33 104 93t173 60q72 0 169 -32q101 -33 144 -33q14 0 95 33q79 32 118 32q38 0 77 -70t39 -104q0 -28 -98 -89t-172 -61t-176 33t-132 33t-114 -33t-118 -33zM1195 222q1 -17 1 -53q0 -18 -2 -50q-2 -25 -6 -34q-9 -22 -40 -33
q-32 -11 -67 -14q-24 -2 -73 -2q-38 0 -57 -4q-9 -1 -30 -6q-19 -4 -40 -6q-20 -2 -37 0q-18 2 -27 14q-4 4 -10 17q-5 11 -11 19q-67 112 -113 183q-56 87 -135 170q1 -5 8 -44q2 -10 5.5 -34t6.5 -38q2 -12 7 -40t7 -44q9 -65 11 -82q5 -42 5 -67q0 -30 -4 -37
q-23 2 -56 0q-48 -2 -70 -4q-48 -4 -70 -7q-38 -5 -56 -10q-11 -1 -29 -8q-28 -10 -36 -12q-17 -4 -35 -2q-15 1 -21 17q0 2 -0.5 4t-1 6t-0.5 7q-1 4 -1.5 12.5t-0.5 13.5q-1 10 -1 27v20q-2 41 -4.5 123t-3.5 122q-5 135 -13 245q-8 111 -28 243q-18 117 -53 239
q-1 4 -4 15t-5 18q-6 18 2 34q5 12 33 22q29 10 71 21q38 10 90 18q30 5 91 11q43 4 76 3q34 -2 42 -8q8 -7 17 -27q8 -19 18 -47q3 -9 16 -50q6 -18 12 -35q21 -64 50 -127q33 -70 61 -122q7 -13 20.5 -38t24.5 -45t21 -37q40 -72 64 -120q-26 262 -37 391q-17 198 -49 388
q-3 12 -5 43q-2 26 14 40q12 11 39 14q25 3 55 3q20 0 56 -2t45 -2q25 -2 61 5q41 6 80 9q42 3 73 -4q32 -7 40 -37q7 -32 -5 -63q-12 -30 -12 -61q0 -203 -1 -303q-2 -150 3 -303q5 -117 13 -209q10 -115 10 -207q0 -22 1 -39z" />
    <glyph glyph-name="oacute" unicode="&#xf3;" horiz-adv-x="1310" 
d="M1196 840q20 -143 6 -275q-15 -140 -67 -254q-52 -115 -147 -196q-93 -79 -232 -99q-152 -21 -269 36q-118 58 -200 163q-84 108 -130 245q-47 140 -53 280q-6 144 26 268q33 126 110 211q70 75 162 117q93 43 191 55q44 6 99 3q61 -3 109 -14q56 -12 103 -33
q46 -20 81 -52q83 -79 137 -198q55 -121 74 -257zM833 566q11 59 3 124q-8 67 -28 125q-22 63 -46 98q-8 14 -28 32q-19 17 -40 30t-45 19q-23 6 -42 0q-44 -14 -65 -53q-22 -40 -26 -92q-4 -50 5 -111q8 -55 28 -115q17 -54 44 -99q26 -45 52 -65q30 -23 70 -16t68 29
q39 33 50 94zM528 1552q-26 22 -36 44q-16 37 -6 93q10 57 35 122q26 68 53 118q30 55 51 84q18 24 55 15q36 -9 76 -35q42 -27 75 -55q36 -30 51 -45q42 -49 5 -95q-1 -1 -13.5 -15t-20.5 -23q-28 -30 -42 -46q-6 -7 -19 -21.5t-20 -22.5q-20 -23 -26 -37q-15 -26 -25 -48
q-11 -24 -27 -46q-18 -26 -49 -29q-30 -3 -60 9q-33 13 -57 33z" />
    <glyph glyph-name="uacute" unicode="&#xfa;" horiz-adv-x="1277" 
d="M1173 1157q5 -53 0 -134q-5 -82 -21 -182q-16 -98 -45 -207t-72 -208q-42 -100 -102 -182q-59 -81 -138 -133t-175 -59q-142 -9 -235 36q-97 47 -155 129q-60 85 -88 192q-29 110 -36 226q-7 114 2 234q9 116 27 209q16 82 39 155q20 62 35 76q26 21 43 24q18 3 49 3
q17 0 64 -7q34 -5 81 -19q36 -11 72 -33q31 -19 37 -48q4 -17 -6 -64q-6 -31 -25 -98q-6 -21 -29 -116q-13 -54 -20 -123q-6 -63 2 -113q9 -56 41 -92q25 -27 52 -32q28 -5 53 7t47 34q26 26 38 44q38 58 66 158t44 183q22 117 27 155q9 66 17 74q11 11 32 13q24 2 44 -2
q41 -8 46 -9q26 -7 37 -8q3 0 8.5 -1l11 -2t11.5 -1q11 -1 40 -5q6 -1 19 -2.5t20 -2.5q19 -3 26 -9q11 -7 16 -60zM622 1450q-27 22 -37 45q-15 35 -5 93q11 62 34 122q23 61 54 118q30 56 51 84q18 23 55 14q39 -10 76 -34t74 -55q36 -30 52 -46q41 -49 5 -94
q-1 -1 -13.5 -15t-20.5 -23q-28 -30 -42 -46q-6 -7 -19.5 -22t-20.5 -23q-21 -24 -26 -36q-12 -21 -25 -49q-11 -24 -27 -46q-18 -26 -49 -29q-28 -3 -60 10q-33 13 -56 32z" />
    <glyph glyph-name="Euro" unicode="&#x20ac;" horiz-adv-x="1257" 
d="M1149 253q7 -15 6 -27q-5 -36 -38 -71q-37 -39 -91 -67q-60 -32 -128 -50q-76 -21 -149 -22q-80 -2 -155 20q-77 22 -146 76q-68 53 -123 145q-55 91 -83 225l-30 -2q-30 -2 -45 -1q-23 1 -42 6q-19 4 -19 20q-2 17 3 35q5 20 5 36q0 36 5 50q6 15 19 22q11 6 33 4
q28 -2 50 -2q-2 20 -2 32v31q-26 0 -46 -1q-29 -1 -44 7q-2 2 -11 27q-10 29 -14 54q-4 27 1 55q5 26 32 28q21 1 44 0q32 -2 45 -2q11 70 40 145q27 68 69 130q41 60 99 112t123 85q62 32 142 38q78 6 148 -3q6 -1 14.5 -3t22 -5t24.5 -5q43 -9 83 -24q37 -14 69 -36
q30 -21 24 -48q-1 -11 -15 -35q-9 -16 -29 -52q-10 -18 -30 -52q-4 -6 -9 -15t-8.5 -14.5t-5.5 -9.5q-3 -6 -19 -42q-18 -41 -26 -55q-13 -24 -30 -49q-14 -20 -32 -27q-22 -7 -46 2q-25 10 -46 24q-26 17 -48 29q-25 13 -48 12q-26 -2 -49 -22q-26 -23 -48 -76q16 0 49 3
t69 3q32 0 65 -5q30 -4 39 -18q9 -15 9 -30v-29q0 -3 2 -21t3 -26q1 -11 -2 -24q-3 -11 -10 -17q-6 -5 -41 -6q-38 -2 -79 -3q-29 -1 -81 -1h-52v-28q0 -9 2 -29h53q53 0 81 -1q51 -2 77 -4q36 -3 43 -7q18 -10 15 -35q-1 -7 -2.5 -21.5t-2.5 -19.5q-2 -21 -1 -36
q1 -19 -9 -35q-8 -12 -36 -17q-24 -4 -59 -4q-23 0 -63 2t-44 2q41 -64 95 -70q58 -6 112 8q63 17 105 31q48 16 76 -1q11 -9 20 -19q14 -15 25 -31q4 -6 11.5 -17t11.5 -16q8 -11 18 -26q11 -17 17 -24q12 -15 21 -30q12 -20 17 -30z" />
  </font>
</defs>
</svg>
